<?xml version="1.0" standalone="no"?>
<!DOCTYPE svg PUBLIC "-//W3C//DTD SVG 1.1//EN" "http://www.w3.org/Graphics/SVG/1.1/DTD/svg11.dtd" >
<svg xmlns="http://www.w3.org/2000/svg">
<metadata>Generated by IcoMoon</metadata>
<defs>
<font id="icomoon" horiz-adv-x="1024">
<font-face units-per-em="1024" ascent="960" descent="-64" />
<missing-glyph horiz-adv-x="1024" />
<glyph unicode="&#x20;" horiz-adv-x="512" d="" />
<glyph unicode="&#xe900;" glyph-name="sign-out" d="M627.503 776.831c16.663-16.662 16.663-43.677 0-60.34l-268.497-268.497 268.497-268.494c16.663-16.666 16.663-43.68 0-60.346-16.662-16.659-43.677-16.659-60.34 0l-298.667 298.669c-16.662 16.662-16.662 43.677 0 60.34l298.667 298.667c16.662 16.662 43.677 16.662 60.34 0zM938.669 448.005c0-23.564-19.104-42.667-42.669-42.667h-597.334c-23.564 0-42.666 19.103-42.666 42.667s19.102 42.667 42.666 42.667h597.334c23.565 0 42.669-19.103 42.669-42.667zM128.001 106.669c-23.564 0-42.667 19.104-42.667 42.669v597.334c0 23.564 19.103 42.667 42.667 42.667s42.666-19.103 42.666-42.667v-597.334c0-23.565-19.103-42.669-42.666-42.669z" />
<glyph unicode="&#xe901;" glyph-name="user_2" d="M190.484 300.186c40.008 40.010 94.27 62.486 150.849 62.486h341.336c56.576 0 110.842-22.476 150.848-62.486 40.006-40.006 62.483-94.266 62.483-150.848v-85.331c0-23.565-19.104-42.669-42.669-42.669s-42.662 19.104-42.662 42.669v85.331c0 33.946-13.485 66.509-37.491 90.509-24.006 24.006-56.563 37.491-90.509 37.491h-341.336c-33.948 0-66.505-13.485-90.509-37.491-24.004-24-37.491-56.563-37.491-90.509v-85.331c0-23.565-19.102-42.669-42.666-42.669s-42.667 19.104-42.667 42.669v85.331c0 56.582 22.476 110.842 62.484 150.848zM511.999 789.338c-70.692 0-128-57.308-128-127.999s57.308-128 128-128c70.692 0 128 57.308 128 128s-57.308 127.999-128 127.999zM298.666 661.339c0 117.82 95.512 213.333 213.333 213.333s213.332-95.513 213.332-213.333c0-117.821-95.511-213.334-213.332-213.334s-213.333 95.513-213.333 213.334z" />
<glyph unicode="&#xe902;" glyph-name="windows-minimize" d="M51 407.963c-7 0-13.667 1.333-20 4-6 2.666-11.333 6.333-16 11s-8.333 10-11 16c-2.667 6.333-4 13-4 20s1.333 13.5 4 19.5c2.667 6.333 6.333 11.833 11 16.5 4.667 5 10 8.833 16 11.5 6.333 2.667 13 4 20 4h922c7 0 13.5-1.333 19.5-4 6.333-2.667 11.833-6.5 16.501-11.5 4.666-4.667 8.333-10.167 11-16.5 2.666-6 4-12.5 4-19.5s-1.333-13.667-4-20c-2.666-6-6.333-11.333-11-16s-10.167-8.333-16.501-11c-6-2.666-12.5-4-19.5-4h-922z" />
<glyph unicode="&#xe903;" glyph-name="windows-maximized" d="M183.818-7.308c-18.182 0-35.606 3.64-52.273 10.91-16.667 7.578-31.364 17.576-44.091 29.999-12.424 12.727-22.424 27.425-30 44.091-7.273 16.667-10.909 34.092-10.909 52.273v656.364c0 18.182 3.636 35.606 10.909 52.272 7.576 16.667 17.576 31.212 30 43.637 12.727 12.727 27.424 22.727 44.091 30 16.666 7.576 34.091 11.364 52.273 11.364h656.364c18.182 0 35.606-3.788 52.272-11.364 16.667-7.273 31.212-17.273 43.636-30 12.727-12.424 22.727-26.97 30-43.637 7.576-16.666 11.364-34.091 11.364-52.272v-656.364c0-18.182-3.788-35.606-11.364-52.273-7.273-16.666-17.273-31.363-30-44.091-12.424-12.424-26.969-22.422-43.636-29.999-16.666-7.27-34.091-10.91-52.272-10.91h-656.364zM837.909 85.875c6.364 0 12.272 1.212 17.727 3.636 5.758 2.424 10.758 5.758 15 10s7.576 9.091 10 14.545c2.424 5.758 3.636 11.818 3.636 18.182v651.819c0 6.363-1.212 12.272-3.636 17.727-2.424 5.757-5.758 10.757-10 15s-9.242 7.576-15 10c-5.455 2.424-11.364 3.636-17.727 3.636h-651.819c-6.364 0-12.424-1.212-18.182-3.636-5.454-2.424-10.303-5.758-14.545-10s-7.576-9.243-10-15c-2.424-5.455-3.636-11.365-3.636-17.727v-651.819c0-6.364 1.212-12.424 3.636-18.182 2.424-5.454 5.758-10.303 10-14.545s9.091-7.576 14.545-10c5.758-2.424 11.818-3.636 18.182-3.636h651.819z" />
<glyph unicode="&#xe904;" glyph-name="windows-icon" d="M30.118 454.566c0 44.235 5.647 86.902 16.941 128 11.608 41.098 27.922 79.373 48.941 114.824 21.020 35.765 46.118 68.235 75.294 97.412 29.49 29.49 61.961 54.745 97.412 75.765 35.765 21.020 74.196 37.176 115.294 48.47 41.098 11.608 83.764 17.412 128 17.412s86.902-5.804 128-17.412c41.099-11.294 79.372-27.451 114.821-48.47 35.768-21.020 68.241-46.275 97.413-75.765 29.491-29.177 54.748-61.647 75.764-97.412 21.022-35.451 37.177-73.726 48.471-114.824 11.607-41.098 17.414-83.765 17.414-128s-5.807-86.902-17.414-128.001c-11.294-41.099-27.449-79.529-48.471-115.296-21.016-35.448-46.273-67.921-75.764-97.406-29.172-29.178-61.645-54.278-97.413-75.294-35.448-21.022-73.722-37.334-114.821-48.941-41.098-11.294-83.764-16.944-128-16.944s-86.902 5.65-128 16.944c-41.098 11.607-79.529 27.919-115.294 48.941-35.451 21.016-67.922 46.116-97.412 75.294-29.176 29.485-54.274 61.958-75.294 97.406-21.020 35.768-37.333 74.198-48.941 115.296-11.294 41.099-16.941 83.765-16.941 128.001zM933.647 454.566c0 38.588-5.018 75.765-15.059 111.529-10.041 36.079-24.311 69.647-42.821 100.706-18.197 31.372-40.159 59.921-65.885 85.647s-54.272 47.686-85.649 65.882c-31.057 18.51-64.626 32.784-100.704 42.824-35.765 10.039-72.941 15.059-111.529 15.059-38.902 0-76.392-5.019-112.471-15.059-35.765-10.039-69.333-24.314-100.706-42.824-31.059-18.196-59.451-40.157-85.176-65.882-25.412-25.411-47.373-53.804-65.883-85.176-18.196-31.059-32.313-64.628-42.353-100.706-10.039-35.765-15.059-73.098-15.059-112s5.019-76.392 15.059-112.472c10.039-35.762 24.157-69.331 42.353-100.707 18.51-31.057 40.471-59.446 65.883-85.173 25.725-25.413 54.117-47.375 85.176-65.885 31.372-18.191 64.941-32.31 100.706-42.351 36.079-10.041 73.569-15.059 112.471-15.059s76.235 5.018 112 15.059c36.076 10.041 69.645 24.16 100.703 42.351 31.377 18.51 59.765 40.472 85.179 65.885 25.726 25.726 47.688 54.115 65.885 85.173 18.51 31.377 32.78 64.946 42.821 100.707 10.041 36.080 15.059 73.57 15.059 112.472z" />
<glyph unicode="&#xe905;" glyph-name="windows-close" d="M512 392.239l-385.909-385.908c-9.091-9.095-20-13.638-32.727-13.638-13.333 0-24.545 4.394-33.636 13.182-8.788 9.095-13.182 20.303-13.182 33.637 0 12.727 4.545 23.636 13.636 32.727l385.909 385.909-385.909 385.909c-9.091 9.090-13.636 20.151-13.636 33.182 0 6.364 1.212 12.424 3.636 18.182s5.758 10.606 10 14.545c4.242 4.242 9.242 7.576 15 10s11.818 3.636 18.182 3.636c12.727 0 23.636-4.545 32.727-13.636l385.909-385.909 385.909 385.909c9.090 9.091 20.151 13.636 33.181 13.636 6.364 0 12.273-1.212 17.727-3.636 5.758-2.424 10.758-5.758 15.001-10s7.576-9.242 10-15c2.424-5.455 3.636-11.364 3.636-17.727 0-13.030-4.546-24.091-13.636-33.182l-385.909-385.909 385.909-385.909c9.090-9.091 13.636-20 13.636-32.727 0-6.364-1.212-12.422-3.636-18.184-2.424-5.753-5.758-10.752-10-14.997-3.94-4.245-8.789-7.578-14.545-9.998-5.758-2.43-11.819-3.64-18.183-3.64-13.030 0-24.091 4.543-33.181 13.638l-385.909 385.908z" />
<glyph unicode="&#xe906;" glyph-name="windows-back" d="M1024 458.963c0-7-1.333-13.667-4-20.001-2.666-6-6.333-11.333-11-16s-10.167-8.333-16.501-11c-6-2.666-12.5-4-19.5-4h-798.5l322.501-322c9.999-10 15-22.001 15-36 0-7-1.333-13.667-4-20.001s-6.333-11.833-11-16.5c-4.334-4.666-9.668-8.333-16-11-6.333-2.666-13.001-4-20.001-4-14.333 0-26.5 4.999-36.499 15l-411 411v0.5c-9 9.001-13.5 20.334-13.5 34.001 0 14.333 5 26.499 15 36.499l409.5 409.5c9.999 10 22.167 15 36.499 15 7 0 13.5-1.333 19.5-4 6.333-2.667 11.833-6.333 16.501-11 4.666-4.667 8.333-10.167 11-16.5 2.666-6 4-12.5 4-19.5 0-14.333-5-26.5-15-36.5l-322.001-322h798c7 0 13.5-1.334 19.5-4.001 6.333-2.666 11.833-6.499 16.501-11.5 4.666-4.666 8.333-10.167 11-16.5 2.666-6.001 4-12.5 4-19.5z" />
<glyph unicode="&#xe907;" d="M827.715 761.308h-598.055c-38.097 0-69.006-30.909-69.006-69.006v-506.048c0-38.097 30.909-69.006 69.006-69.006h598.055c38.097 0 69.006 30.909 69.006 69.006v506.048c0 38.097-30.909 69.006-69.006 69.006zM712.704 646.297c0 25.446 20.559 46.004 46.005 46.004s46.005-20.558 46.005-46.004c0-25.446-20.559-46.004-46.005-46.004s-46.005 20.558-46.005 46.004zM574.692 646.297c0 25.446 20.559 46.004 46.005 46.004 25.442 0 46.001-20.558 46.001-46.004s-20.559-46.004-46.001-46.004c-25.446 0-46.005 20.558-46.005 46.004zM436.681 646.297c0 25.446 20.555 46.004 46.001 46.004s46.005-20.558 46.005-46.004c0-25.446-20.559-46.004-46.005-46.004s-46.001 20.558-46.001 46.004zM827.715 194.879c0-4.742-3.883-8.625-8.625-8.625h-580.804c-4.744 0-8.626 3.883-8.626 8.625v336.408h598.055v-336.408z" />
<glyph unicode="&#xe908;" d="M7.168 732.357l1009.034-598.725" />
<glyph unicode="&#xe909;" d="M43.323 709.159l937.039-551.936" />
<glyph unicode="&#xe90a;" glyph-name="video" d="M106.624 787.499c-48.847-8.907-87.663-44.136-101.606-90.173l-0.239-0.92-3.925-13.739v-469.333l3.925-13.739c12.998-42.417 45.733-75.152 87.218-87.903l0.931-0.246 13.739-3.925h512l13.739 3.925c41.885 12.802 74.32 44.842 87.421 85.556l0.259 0.93c4.181 13.483 4.267 14.848 5.163 90.197l0.939 76.501 117.973-84.267c72.107-51.499 120.661-85.077 124.8-86.315 3.699-1.199 7.954-1.89 12.371-1.89 11.815 0 22.476 4.946 30.023 12.881l0.016 0.017c13.525 13.909 12.629-3.157 12.629 242.091 0 246.571 0.853 230.101-12.928 243.925-7.557 7.848-18.154 12.722-29.889 12.722-4.362 0-8.567-0.674-12.516-1.922l0.294 0.080c-4.139-1.237-52.693-34.816-124.8-86.315l-117.973-84.267-0.939 76.501c-0.896 75.349-0.981 76.715-5.163 90.197-13.194 41.115-44.919 72.868-85.085 85.841l-0.931 0.26-13.696 4.309-252.587 0.256c-138.923 0.128-256.469-0.427-261.163-1.237zM611.413 701.568c9.429-3.371 17.664-10.283 22.997-19.371l4.736-8.064v-452.267l-4.736-8.064c-5.205-8.884-13.166-15.672-22.692-19.27l-0.305-0.101c-9.472-3.371-488.021-3.371-497.493 0-9.832 3.699-17.793 10.487-22.884 19.162l-0.113 0.208-4.736 8.064v452.267l4.736 8.064c5.333 9.088 13.568 16 22.997 19.371 9.472 3.371 488.021 3.371 497.493 0zM938.24 383.019l-0.427-64.939-90.027 64.256c-49.493 35.371-90.027 64.896-90.027 65.664s40.533 30.293 90.027 65.664l90.027 64.256 0.427-64.939c0.256-35.755 0.256-94.208 0-129.963z" />
<glyph unicode="&#xe90b;" glyph-name="trim" d="M24.497 775.569c0 24.477 19.843 44.32 44.32 44.32h161.155c32.505 0 64.054-12.334 87.613-34.869 23.625-22.599 37.285-53.681 37.285-86.53v-539.548c0-32.849-13.66-63.928-37.285-86.531-23.558-22.533-55.107-34.868-87.613-34.868h-161.155c-24.477 0-44.32 19.842-44.32 44.32 0 24.473 19.843 44.32 44.32 44.32h161.155c10.236 0 19.677 3.905 26.342 10.282 6.597 6.309 9.916 14.435 9.916 22.474v539.548c0 8.037-3.319 16.166-9.916 22.476-6.664 6.375-16.106 10.282-26.342 10.282h-161.155c-24.477 0-44.32 19.843-44.32 44.32zM794.028 731.249c-10.238 0-19.681-3.908-26.346-10.282-6.596-6.311-9.916-14.439-9.916-22.476v-539.548c0-8.039 3.32-16.166 9.916-22.474 6.665-6.377 16.108-10.282 26.346-10.282h161.154c24.473 0 44.32-19.847 44.32-44.32 0-24.478-19.847-44.32-44.32-44.32h-161.154c-32.507 0-64.055 12.335-87.617 34.868-23.625 22.601-37.28 53.681-37.28 86.531v539.548c0 32.848 13.655 63.93 37.28 86.53 23.562 22.535 55.109 34.869 87.617 34.869h161.154c24.473 0 44.32-19.843 44.32-44.32s-19.847-44.32-44.32-44.32h-161.154zM511.974 935.52c24.478 0 44.32-19.843 44.32-44.32v-73.866c0-24.477-19.842-44.32-44.32-44.32s-44.32 19.843-44.32 44.32v73.866c0 24.477 19.843 44.32 44.32 44.32zM511.974 713.92c24.478 0 44.32-19.843 44.32-44.32v-147.733c0-24.477-19.842-44.32-44.32-44.32s-44.32 19.843-44.32 44.32v147.733c0 24.477 19.843 44.32 44.32 44.32zM511.974 418.455c24.478 0 44.32-19.842 44.32-44.32v-147.733c0-24.478-19.842-44.32-44.32-44.32s-44.32 19.842-44.32 44.32v147.733c0 24.478 19.843 44.32 44.32 44.32zM511.974 122.988c24.478 0 44.32-19.847 44.32-44.32v-73.869c0-24.478-19.842-44.32-44.32-44.32s-44.32 19.842-44.32 44.32v73.869c0 24.473 19.843 44.32 44.32 44.32z" />
<glyph unicode="&#xe90c;" glyph-name="trash-2" d="M405.291 915.541c-48.282-8.746-86.743-43.284-100.999-88.555l-0.249-0.917c-3.541-11.819-4.224-18.261-4.949-46.549l-0.811-32.853h-87.381c-100.011 0-99.669 0.043-112.512-12.8-7.967-7.491-12.93-18.099-12.93-29.867s4.962-22.376 12.908-29.847l0.021-0.020c10.581-10.581 19.072-12.8 48.64-12.8h23.552l0.939-577.707 4.309-13.696c13.184-41.6 46.763-74.752 87.765-86.485l13.739-3.925h469.333l13.739 3.925c41.003 11.733 74.581 44.885 87.765 86.485l4.309 13.696 0.939 577.707h23.552c29.653 0 38.059 2.219 48.768 12.928 7.808 7.808 12.928 19.627 12.928 29.739s-5.12 21.931-12.928 29.739c-13.013 12.971-12.459 12.928-112.64 12.928h-87.381l-0.811 32.853c-0.725 28.288-1.408 34.731-4.949 46.549-13.063 41.14-44.783 72.916-84.962 85.802l-0.926 0.257-13.696 4.267-103.253 0.299c-56.789 0.171-107.136-0.341-111.829-1.152zM611.413 829.568c9.429-3.371 17.664-10.283 22.997-19.371 4.565-7.765 4.736-9.045 5.291-35.797l0.597-27.733h-256.597l0.597 27.733c0.555 26.752 0.725 28.032 5.291 35.797 5.333 9.088 13.568 16 22.997 19.371 9.344 3.328 189.483 3.328 198.827 0zM767.915 380.16c-0.043-230.443-0.469-282.325-2.347-287.573-3.699-9.832-10.487-17.793-19.162-22.884l-0.208-0.113-8.064-4.736h-452.267l-8.064 4.736c-8.884 5.205-15.672 13.166-19.27 22.692l-0.101 0.305c-1.877 5.248-2.304 57.131-2.347 287.573l-0.085 281.173h512l-0.085-281.173zM412.715 530.645c-10.411-3.2-22.315-14.976-25.984-25.728-2.432-7.083-2.731-23.637-2.731-142.251 0-151.595-0.597-144.171 13.056-157.867 7.68-7.637 19.541-12.8 29.611-12.8 10.112 0 21.931 5.12 29.739 12.928 13.44 13.44 12.928 7.339 12.928 157.739s0.512 144.299-12.928 157.739c-11.904 11.904-26.88 15.403-43.691 10.24zM583.381 530.645c-10.411-3.2-22.315-14.976-25.984-25.728-2.432-7.083-2.731-23.637-2.731-142.251 0-151.595-0.597-144.171 13.056-157.867 7.68-7.637 19.541-12.8 29.611-12.8 10.112 0 21.931 5.12 29.739 12.928 13.44 13.44 12.928 7.339 12.928 157.739s0.512 144.299-12.928 157.739c-11.904 11.904-26.88 15.403-43.691 10.24z" />
<glyph unicode="&#xe90d;" glyph-name="thumbnail" d="M191.957 872.832c-48.856-8.887-87.68-44.125-101.606-90.174l-0.239-0.919-3.925-13.739v-640l3.925-13.739c12.998-42.417 45.733-75.152 87.218-87.903l0.931-0.246 13.739-3.925h640l13.739 3.925c42.417 12.998 75.152 45.733 87.903 87.218l0.246 0.931 3.925 13.739v640l-3.925 13.739c-11.733 41.003-44.885 74.581-86.485 87.765l-13.696 4.309-316.587 0.256c-174.123 0.128-320.469-0.427-325.163-1.237zM824.747 786.901c9.429-3.371 17.664-10.283 22.997-19.371l4.736-8.064 0.469-168.064 0.469-168.107-73.856 73.557c-66.133 65.835-74.752 73.856-82.261 76.331-4.364 1.684-9.414 2.66-14.692 2.66-5.235 0-10.245-0.96-14.865-2.714l0.288 0.096c-7.723-2.56-26.965-21.291-239.275-233.387l-230.869-230.613-6.357 3.627c-8.847 5.763-15.543 14.183-19.014 24.117l-0.101 0.331c-1.195 4.437-1.664 105.643-1.323 314.368l0.427 307.797 4.736 8.064c5.333 9.088 13.568 16 22.997 19.371 9.515 3.371 615.979 3.371 625.493 0zM339.627 701.355c-39.552-8.491-72.747-41.984-81.067-81.835-1.445-6.583-2.272-14.144-2.272-21.899 0-58.91 47.756-106.667 106.667-106.667 7.755 0 15.316 0.828 22.601 2.399l-0.702-0.127c56.96 11.904 93.952 68.907 81.92 126.293-11.947 57.216-69.461 94.208-127.147 81.835zM372.224 616.021c6.822-3.513 11.407-10.507 11.407-18.571 0-3.95-1.1-7.644-3.011-10.791l0.052 0.092c-3.625-6.312-10.326-10.494-18.005-10.494s-14.381 4.182-17.952 10.394l-0.053 0.101c-1.925 3.056-3.068 6.773-3.068 10.758 0 7.628 4.188 14.278 10.39 17.776l0.102 0.053c2.993 1.996 6.672 3.184 10.628 3.184 3.496 0 6.775-0.928 9.605-2.552l-0.094 0.050zM768.512 386.901l84.949-84.949-0.512-82.731-0.469-82.688-4.736-8.064c-5.205-8.884-13.166-15.672-22.692-19.27l-0.305-0.101c-5.248-1.877-52.139-2.304-257.28-2.347l-250.88-0.085 182.613 182.613c60.521 60.791 120.306 120.305 180.356 179.551l3.111 3.062c0.469 0 39.083-38.229 85.845-84.992z" />
<glyph unicode="&#xe90e;" glyph-name="stop-fill" d="M0 740.571c0 121.187 98.242 219.429 219.429 219.429h585.142c121.19 0 219.429-98.242 219.429-219.429v-585.142c0-121.19-98.238-219.429-219.429-219.429h-585.142c-121.187 0-219.429 98.238-219.429 219.429v585.142z" />
<glyph unicode="&#xe90f;" glyph-name="share" d="M626.048 871.979c-6.143-2.204-11.372-5.647-15.603-10.056l-0.013-0.014c-7.994-7.494-12.974-18.119-12.974-29.908 0-11.768 4.963-22.377 12.91-29.848l0.021-0.020c12.715-12.715 13.483-12.8 103.723-12.8h78.592l-201.6-201.813c-185.045-185.259-201.771-202.496-204.331-210.219-1.465-4.311-2.456-9.301-2.766-14.475l-0.008-0.159c0-17.28 13.184-35.243 29.44-40.064 11.008-3.285 15.445-3.285 27.008 0.085 9.045 2.645 14.037 7.467 211.072 204.373l201.813 201.643v-79.445c0-90.453-0.043-89.984 13.056-103.125 7.68-7.637 19.541-12.8 29.611-12.8 10.112 0 21.931 5.12 29.739 12.928 13.44 13.44 12.928 7.040 12.928 160.171l-0.043 134.955-4.011 8.533c-4.266 9.604-11.858 17.086-21.282 21.105l-0.265 0.1c-7.509 3.413-10.411 3.456-143.36 3.371-113.109-0.043-137.003-0.469-143.659-2.517zM191.957 744.832c-48.847-8.907-87.663-44.136-101.606-90.173l-0.239-0.92-3.925-13.739v-512l3.925-13.739c12.998-42.417 45.733-75.152 87.218-87.903l0.931-0.246 13.739-3.925h512l13.739 3.925c41.883 12.824 74.321 44.853 87.463 85.554l0.26 0.931 4.309 13.696 0.512 141.397c0.597 160.896 1.109 153.685-12.544 167.339-7.665 7.634-18.092 12.499-29.651 12.968l-0.088 0.003c-9.515 0-21.76-5.12-28.971-12.075-13.653-13.269-12.757-2.645-13.696-159.445l-0.853-139.947-4.736-8.064c-5.205-8.884-13.166-15.672-22.692-19.27l-0.305-0.101c-9.472-3.371-488.021-3.371-497.493 0-9.832 3.699-17.793 10.487-22.884 19.162l-0.113 0.208-4.736 8.064-0.469 243.797c-0.256 160.256 0.171 245.973 1.28 250.197 2.56 9.387 10.709 19.669 20.011 25.131l8.192 4.821 139.947 0.853c156.8 0.939 146.176 0.043 159.445 13.696 6.955 7.211 12.075 19.456 12.075 28.971 0 10.112-5.12 21.931-12.928 29.739-13.483 13.483-6.784 12.971-161.877 12.715-75.179-0.085-140.544-0.853-145.237-1.621z" />
<glyph unicode="&#xe910;" glyph-name="qr-code" d="M148.352 871.552c-28.629-7.509-52.864-32-60.459-61.227-2.091-7.936-2.56-23.808-2.56-84.992 0-81.536 0.384-85.461 9.6-103.68 5.803-11.477 24.576-30.251 36.053-36.053 18.219-9.216 22.187-9.6 103.381-9.6 81.237 0 85.888 0.427 104.277 9.771 11.093 5.632 29.952 24.491 35.584 35.584 9.344 18.389 9.771 23.083 9.728 103.381 0 79.872-0.597 86.613-9.301 103.723-5.76 11.392-20.651 27.051-32.597 34.219-18.731 11.307-23.339 11.776-107.392 11.776-65.493 0-76.544-0.341-86.315-2.901zM498.987 872.32c-10.326-3.575-18.722-10.506-24.079-19.465l-0.113-0.204c-3.883-6.656-4.608-9.813-4.608-20.651 0-10.965 0.683-13.952 4.821-20.992 22.101-37.632 79.573-22.443 79.573 20.992 0.001 0.080 0.001 0.175 0.001 0.269 0 16.266-9.157 30.393-22.597 37.507l-0.23 0.111c-5.855 2.608-12.687 4.126-19.873 4.126-4.586 0-9.027-0.618-13.245-1.776l0.35 0.082zM703.019 871.552c-28.629-7.509-52.864-32-60.459-61.227-2.091-7.936-2.56-23.808-2.56-84.992 0-81.536 0.384-85.461 9.6-103.68 5.803-11.477 24.576-30.251 36.053-36.053 18.219-9.216 22.144-9.6 103.68-9.6s85.461 0.384 103.68 9.6c11.349 5.76 30.208 24.533 35.883 35.755 9.344 18.389 9.771 23.083 9.728 103.381 0 79.872-0.597 86.613-9.301 103.723-5.76 11.392-20.651 27.051-32.597 34.219-18.731 11.307-23.339 11.776-107.392 11.776-65.493 0-76.544-0.341-86.315-2.901zM298.667 725.333v-64h-128v128h128v-64zM853.333 725.333v-64h-128v128h128v-64zM498.987 701.568c-10.333-3.519-18.737-10.43-24.080-19.381l-0.112-0.203-4.608-7.851-0.896-75.947c-0.597-54.955-1.451-77.269-2.987-80.768-4.168-8.95-10.689-16.212-18.775-21.17l-0.212-0.121-7.851-4.608-75.947-0.896c-54.955-0.597-77.269-1.451-80.768-2.987-8.95-4.168-16.212-10.689-21.17-18.775l-0.121-0.212c-3.883-6.656-4.608-9.813-4.608-20.651 0-10.965 0.683-13.952 4.821-20.992 5.504-9.387 15.744-17.451 25.472-20.096 4.437-1.195 33.493-1.579 85.504-1.195 76.885 0.597 79.061 0.683 90.709 4.523 41.409 13.508 73.312 45.678 86.186 86.313l0.257 0.94c3.968 12.672 4.011 13.611 4.011 94.72v81.92l-4.608 7.851c-7.531 12.997-21.374 21.6-37.227 21.6-4.641 0-9.109-0.737-13.295-2.101l0.303 0.085zM114.987 488.32c-10.326-3.575-18.722-10.506-24.079-19.465l-0.113-0.204c-3.883-6.656-4.608-9.813-4.608-20.651 0-10.965 0.683-13.952 4.821-20.992 22.101-37.632 79.573-22.443 79.573 20.992 0.001 0.080 0.001 0.175 0.001 0.269 0 16.266-9.157 30.393-22.597 37.507l-0.23 0.111c-5.855 2.608-12.687 4.126-19.873 4.126-4.586 0-9.027-0.618-13.245-1.776l0.35 0.082zM669.653 488.235c-10.333-3.519-18.737-10.43-24.080-19.381l-0.112-0.203c-3.883-6.656-4.608-9.813-4.608-20.651 0-10.923 0.683-13.995 4.736-20.864 5.333-9.088 13.568-16 22.997-19.371 8.875-3.157 61.952-3.157 70.827 0 9.429 3.371 17.664 10.283 22.997 19.371 4.053 6.869 4.736 9.941 4.736 20.864 0 10.837-0.725 13.995-4.608 20.651-5.526 9.348-14.195 16.34-24.524 19.586l-0.308 0.084c-10.24 3.072-58.112 3.029-68.053-0.085zM882.987 488.235c-10.333-3.519-18.737-10.43-24.080-19.381l-0.112-0.203c-3.925-6.656-4.608-9.771-4.565-20.651 0.043-14.165 3.413-22.741 12.16-31.061 20.437-19.328 54.357-13.568 67.712 11.435 5.632 10.624 5.205 29.867-0.896 40.277-7.531 12.997-21.374 21.6-37.227 21.6-4.641 0-9.109-0.737-13.295-2.101l0.303 0.085zM148.352 316.885c-28.629-7.509-52.864-32-60.459-61.227-2.091-7.936-2.56-23.808-2.56-84.992 0-81.536 0.384-85.461 9.6-103.68 5.803-11.477 24.576-30.251 36.053-36.053 18.219-9.216 22.187-9.6 103.381-9.6 81.237 0 85.888 0.427 104.277 9.771 11.093 5.632 29.952 24.491 35.584 35.584 9.344 18.389 9.771 23.083 9.728 103.381 0 79.872-0.597 86.613-9.301 103.723-5.76 11.392-20.651 27.051-32.597 34.219-18.731 11.307-23.339 11.776-107.392 11.776-65.493 0-76.544-0.341-86.315-2.901zM498.987 317.568c-10.333-3.519-18.737-10.43-24.080-19.381l-0.112-0.203c-3.925-6.656-4.608-9.771-4.565-20.651 0.043-14.165 3.413-22.741 12.16-31.061 20.437-19.328 54.357-13.568 67.712 11.435 5.632 10.624 5.205 29.867-0.896 40.277-7.531 12.997-21.374 21.6-37.227 21.6-4.641 0-9.109-0.737-13.295-2.101l0.303 0.085zM746.624 318.165c-47.616-7.979-86.955-42.88-101.76-90.325-3.968-12.672-4.011-13.568-4.011-94.848v-82.048l5.163-8.405c7.549-12.6 21.13-20.904 36.651-20.904s29.102 8.304 36.543 20.711l0.107 0.193 5.163 8.405 0.853 76.075c0.939 85.333 0.597 82.816 13.696 95.573 12.117 11.733 14.72 12.075 94.549 12.16 75.435 0.085 77.141 0.256 88.832 9.173 3.285 2.475 8.064 8.149 10.667 12.544 4.053 6.869 4.736 9.941 4.736 20.864 0 10.837-0.725 13.995-4.608 20.651-3.006 4.864-6.602 9.016-10.76 12.523l-0.077 0.063c-11.947 9.088-15.445 9.429-94.464 9.216-39.979-0.085-76.587-0.853-81.28-1.621zM298.667 170.667v-64h-128v128h128v-64zM498.987 146.901c-10.333-3.519-18.737-10.43-24.080-19.381l-0.112-0.203c-4.608-7.808-4.608-7.979-4.608-42.112v-34.261l5.163-8.405c7.549-12.6 21.13-20.904 36.651-20.904s29.102 8.304 36.543 20.711l0.107 0.193 5.163 8.405v34.261c0 34.133 0 34.304-4.608 42.112-7.531 12.997-21.374 21.6-37.227 21.6-4.641 0-9.109-0.737-13.295-2.101l0.303 0.085zM882.987 104.235c-10.333-3.519-18.737-10.43-24.080-19.381l-0.112-0.203c-3.925-6.656-4.608-9.771-4.565-20.651 0.043-14.165 3.413-22.741 12.16-31.061 20.437-19.328 54.357-13.568 67.712 11.435 5.632 10.624 5.205 29.867-0.896 40.277-7.531 12.997-21.374 21.6-37.227 21.6-4.641 0-9.109-0.737-13.295-2.101l0.303 0.085z" />
<glyph unicode="&#xe911;" glyph-name="polygon" d="M909.174 102.4h-794.348l397.174 691.2 397.174-691.2zM611.292 851.2c-44.129 76.8-154.455 76.8-198.586 0l-397.174-691.2c-44.131-76.8 11.033-172.8 99.294-172.8h794.348c88.264 0 143.427 96 99.292 172.8l-397.174 691.2z" />
<glyph unicode="&#xe912;" glyph-name="play-fill" d="M167.16 958.291c-55.537-10.537-99.288-51.645-113.508-104.822l-0.23-1.012-3.49-13.104v-782.426l3.49-13.104c4.202-15.811 13.461-35.681 22.648-48.572 8.546-11.894 28.559-30.767 39.884-37.534 42.519-25.426 92.017-28.702 134.464-8.902 15.312 7.122 657.15 377.895 667.476 385.587 26.423 19.585 45.153 48.501 53.558 82.545 1.666 9.379 2.617 20.175 2.617 31.195s-0.953 21.816-2.779 32.313l0.161-1.118c-8.625 36.675-30.518 67.187-60.221 86.844l-0.53 0.33c-18.304 11.894-651.097 376.827-661.922 381.74-17.376 7.43-37.595 11.749-58.822 11.749-8.046 0-15.946-0.621-23.656-1.816l0.859 0.11z" />
<glyph unicode="&#xe913;" glyph-name="mail" d="M149.291 830.165c-27.349-4.608-47.104-15.147-68.395-36.395-17.877-17.835-27.307-33.323-33.451-54.699l-3.925-13.739v-554.667l3.925-13.739c6.144-21.376 15.573-36.864 33.451-54.699 17.835-17.877 33.323-27.307 54.699-33.451l13.739-3.925h725.333l13.739 3.925c21.376 6.144 36.864 15.573 54.699 33.451 17.877 17.835 27.307 33.323 33.451 54.699l3.925 13.739v554.667l-3.925 13.739c-6.144 21.376-15.573 36.864-33.451 54.699-17.493 17.493-31.659 26.283-53.035 33.067l-13.696 4.309-359.253 0.256c-197.589 0.128-363.136-0.427-367.829-1.237zM867.584 743.936c8.363-2.859 23.936-16.555 22.827-20.096-0.64-1.963-376.235-265.6-378.411-265.6s-377.771 263.637-378.411 265.6c-1.067 3.285 14.464 17.28 22.144 19.968 6.357 2.261 49.877 2.603 355.541 2.731 315.179 0.128 349.056-0.128 356.309-2.603zM317.824 489.131c95.488-66.816 176.811-122.581 180.693-123.947 4.052-1.532 8.736-2.419 13.627-2.419 4.387 0 8.607 0.713 12.551 2.031l-0.279-0.081c4.181 1.237 78.293 52.053 188.8 129.408l181.931 127.36 0.427-217.685c0.512-244.992 1.408-227.627-12.459-241.493-14.165-14.123 19.157-12.971-371.115-12.971-390.187 0-356.992-1.152-371.072 12.928-13.867 13.867-12.928-3.627-12.928 241.835v218.283l8.107-5.888c4.437-3.243 86.229-60.544 181.717-127.36z" />
<glyph unicode="&#xe914;" glyph-name="key" d="M880.64 914.432c-6.699-2.261-32.853-27.776-202.368-197.077l-194.645-194.432-16.128 10.069c-41.789 26.715-92.751 42.582-147.42 42.582-41.479 0-80.824-9.134-116.134-25.5l1.709 0.711c-106.581-48.512-171.733-159.147-161.493-274.176 3.243-36.352 9.685-61.525 23.723-92.288 44.536-96.666 140.587-162.558 252.029-162.558 31.449 0 61.673 5.248 89.843 14.915l-1.946-0.581c83.527 28.452 147.933 93.377 175.097 175.283l0.562 1.954c8.403 25.5 13.249 54.851 13.249 85.333s-4.846 59.833-13.81 87.324l0.561-1.99c-8.047 23.787-17.905 44.348-29.87 63.456l0.729-1.248-10.069 16.085 117.035 117.077 51.2-51.072c56.192-56.021 58.795-58.027 76.928-58.069 18.688-0.085 19.413 0.555 106.837 88.235 76.331 76.501 79.744 80.213 82.347 89.088 3.413 11.648 3.413 15.957 0 27.563-2.603 8.747-5.76 12.245-54.955 61.696l-52.181 52.48 30.891 31.275c27.989 28.373 31.104 32.128 33.579 40.448 3.413 11.392 3.413 15.872 0.128 26.88-6.613 22.315-32.085 34.517-55.424 26.539zM844.8 694.613l33.237-33.28-88.661-88.747-67.456 67.371 43.947 43.989c14.572 14.834 29.169 29.161 44.024 43.219l0.776 0.728c0.469 0 15.829-14.976 34.133-33.28zM365.355 485.035c71.296-18.56 121.771-68.992 141.141-141.013 3.925-14.549 4.395-19.541 4.395-45.355s-0.469-30.805-4.395-45.355c-8.491-31.531-22.613-58.837-41.259-79.744-28.245-31.659-58.539-50.304-99.883-61.397-14.549-3.925-19.541-4.395-45.355-4.395s-30.805 0.469-45.355 4.395c-50.987 13.696-91.733 43.349-117.76 85.632-18.024 28.621-28.717 63.432-28.717 100.741 0 52.982 21.566 100.927 56.398 135.536l0.010 0.010c28.544 28.501 62.635 46.208 104.235 54.144 19.285 3.669 56.107 2.133 76.544-3.2z" />
<glyph unicode="&#xe915;" glyph-name="image" d="M191.957 872.832c-48.856-8.887-87.68-44.125-101.606-90.174l-0.239-0.919-3.925-13.739v-640l3.925-13.739c12.998-42.417 45.733-75.152 87.218-87.903l0.931-0.246 13.739-3.925h640l13.739 3.925c42.417 12.998 75.152 45.733 87.903 87.218l0.246 0.931 3.925 13.739v640l-3.925 13.739c-11.733 41.003-44.885 74.581-86.485 87.765l-13.696 4.309-316.587 0.256c-174.123 0.128-320.469-0.427-325.163-1.237zM824.747 786.901c9.429-3.371 17.664-10.283 22.997-19.371l4.736-8.064 0.469-168.064 0.469-168.107-73.856 73.557c-66.133 65.835-74.752 73.856-82.261 76.331-4.364 1.684-9.414 2.66-14.692 2.66-5.235 0-10.245-0.96-14.865-2.714l0.288 0.096c-7.723-2.56-26.965-21.291-239.275-233.387l-230.869-230.613-6.357 3.627c-8.847 5.763-15.543 14.183-19.014 24.117l-0.101 0.331c-1.195 4.437-1.664 105.643-1.323 314.368l0.427 307.797 4.736 8.064c5.333 9.088 13.568 16 22.997 19.371 9.515 3.371 615.979 3.371 625.493 0zM339.627 701.355c-39.552-8.491-72.747-41.984-81.067-81.835-1.445-6.583-2.272-14.144-2.272-21.899 0-58.91 47.756-106.667 106.667-106.667 7.755 0 15.316 0.828 22.601 2.399l-0.702-0.127c56.96 11.904 93.952 68.907 81.92 126.293-11.947 57.216-69.461 94.208-127.147 81.835zM372.224 616.021c6.822-3.513 11.407-10.507 11.407-18.571 0-3.95-1.1-7.644-3.011-10.791l0.052 0.092c-3.625-6.312-10.326-10.494-18.005-10.494s-14.381 4.182-17.952 10.394l-0.053 0.101c-1.925 3.056-3.068 6.773-3.068 10.758 0 7.628 4.188 14.278 10.39 17.776l0.102 0.053c2.993 1.996 6.672 3.184 10.628 3.184 3.496 0 6.775-0.928 9.605-2.552l-0.094 0.050zM768.512 386.901l84.949-84.949-0.512-82.731-0.469-82.688-4.736-8.064c-5.205-8.884-13.166-15.672-22.692-19.27l-0.305-0.101c-5.248-1.877-52.139-2.304-257.28-2.347l-250.88-0.085 182.613 182.613c60.521 60.791 120.306 120.305 180.356 179.551l3.111 3.062c0.469 0 39.083-38.229 85.845-84.992z" />
<glyph unicode="&#xe916;" glyph-name="home" d="M1013.714 465.2l-437.993 404.823c-17.905 16.772-40.468 25.956-63.77 25.956s-45.863-9.183-63.769-25.956l-437.993-404.823c-2.864-2.697-5.229-6.001-6.958-9.728s-2.789-7.797-3.12-11.981c-0.33-4.188 0.076-8.407 1.195-12.416s2.93-7.731 5.327-10.957l18.205-24.596c4.842-6.503 11.78-10.578 19.291-11.331 7.511-0.748 14.978 1.889 20.763 7.327l48.836 45.123v-372.621c0.042-16.963 6.049-33.214 16.709-45.205s25.105-18.75 40.18-18.795h227.557c15.075 0.046 29.521 6.804 40.181 18.795s16.667 28.242 16.709 45.205v208.002h113.778v-208.002c0.041-16.963 6.052-33.214 16.712-45.205s25.104-18.75 40.176-18.795h227.56c15.001 0.036 29.389 6.722 40.039 18.611 10.649 11.893 16.701 28.027 16.851 44.908v373.143l48.943-45.241c5.78-5.442 13.251-8.080 20.762-7.327 7.511 0.748 14.449 4.823 19.292 11.325l18.186 24.582c2.407 3.231 4.219 6.964 5.34 10.987s1.52 8.253 1.182 12.452c-0.338 4.198-1.413 8.285-3.154 12.012-1.746 3.733-4.132 7.037-7.014 9.728zM824.575 96.020h-170.4v208.002c-0.041 16.958-6.052 33.209-16.712 45.2s-25.104 18.75-40.176 18.8h-170.669c-15.075-0.051-29.521-6.809-40.18-18.8s-16.667-28.242-16.709-45.2v-208.002h-170.668v419.461l312.89 289.243 312.89-289.123-0.267-419.58z" />
<glyph unicode="&#xe917;" glyph-name="has-menu" d="M827.039 958.194c-68.002-8.706-107.591-41.561-124.675-103.154l-4.928-18.401-1.969-572.946-572.946-1.969-16.424-4.268c-47.47-12.646-79.994-40.573-94.943-81.635-8.706-24.149-11.005-40.082-11.005-76.876 0-28.257 0.659-37.783 3.939-51.907 14.125-61.103 47.798-94.119 109.728-107.591 15.443-3.288 35.484-3.448 397.674-3.448s382.070 0.161 397.513 3.448c61.762 13.304 94.619 45.339 109.891 106.773 4.108 16.263 4.108 16.753 4.769 388.968 0.491 248.53 0 378.622-1.313 390.118-9.365 80.984-52.069 123.854-132.391 133.050-9.213 1.050-19.89 1.643-30.708 1.643-11.348 0-22.539-0.659-33.542-1.938l1.34 0.127z" />
<glyph unicode="&#xe918;" glyph-name="globe" d="M481.28 916.352l-23.893-2.56c-80.555-8.533-159.104-40.107-228.693-91.819-25.856-19.243-71.424-64.811-90.667-90.667-44.117-59.307-72.448-122.283-85.803-190.72-7.083-36.139-8.576-52.352-8.576-92.587s1.493-56.448 8.576-92.587c13.355-68.437 41.685-131.413 85.803-190.72 19.243-25.856 64.811-71.424 90.667-90.667 69.333-51.584 141.397-80.64 228.693-92.245 20.949-2.773 88.277-2.773 109.227 0 87.296 11.605 159.36 40.661 228.693 92.245 25.856 19.243 71.424 64.811 90.667 90.667 51.584 69.333 80.64 141.397 92.245 228.693 2.773 20.949 2.773 88.277 0 109.227-11.605 87.296-40.661 159.36-92.245 228.693-19.243 25.856-64.811 71.424-90.667 90.667-68.053 50.603-139.733 80-222.592 91.264-18.048 2.475-78.891 4.523-91.435 3.115zM412.032 815.36c-19.203-29.882-38.138-64.741-54.568-100.977l-2.136-5.263c-27.52-64.939-45.355-132.181-51.712-194.987-0.824-9.028-1.715-16.342-2.794-23.596l0.277 2.262c-0.469-1.664-19.115-2.133-85.888-2.133h-85.291l0.896 6.4c16.171 113.109 76.544 209.237 170.965 272.299 21.717 14.464 62.72 34.261 89.045 42.965 12.672 4.181 23.339 7.637 23.68 7.637 0.341 0.043-0.768-2.005-2.475-4.608zM652.8 805.291c70.016-26.88 135.808-80.213 179.669-145.664 29.184-43.563 53.035-106.624 59.861-158.293l1.408-10.667h-85.12c-66.603 0-85.248 0.469-85.717 2.133-0.803 4.991-1.693 12.306-2.391 19.677l-0.127 1.657c-5.675 56.064-21.632 119.509-44.715 177.92-14.421 36.523-43.221 92.288-63.616 123.221l-3.029 4.565 14.208-4.309c7.808-2.389 21.12-6.997 29.568-10.24zM526.379 789.12c61.312-85.76 98.603-184.576 110.805-293.76l0.512-4.693h-251.435l2.219 18.347c9.899 82.389 38.955 166.827 82.261 238.933 12.672 21.163 39.424 60.117 41.259 60.117 0.469 0 6.955-8.533 14.379-18.944zM301.099 403.2c0.299-1.195 1.451-10.795 2.517-21.333 5.717-56.277 21.547-119.296 44.715-177.92 14.421-36.523 43.221-92.288 63.616-123.221l3.029-4.565-14.208 4.309c-87.517 27.395-159.745 82.345-208.359 154.52l-0.878 1.384c-29.184 43.563-53.035 106.624-59.861 158.293l-1.408 10.667h85.12c66.603 0 85.248-0.469 85.717-2.133zM637.184 400.64c-12.245-109.44-49.451-207.872-111.232-294.4-4.691-6.91-9.276-12.877-14.173-18.567l0.221 0.263c-1.835 0-28.587 38.955-41.259 60.117-45.696 76.075-73.557 159.957-83.925 252.587l-0.512 4.693h251.392l-0.512-4.693zM892.331 394.667c-6.827-51.541-29.696-112.299-59.008-156.587-49.327-74.489-121.958-130.112-207.355-156.872l-2.736-0.739-14.208-4.309 3.029 4.565c20.395 30.933 49.195 86.699 63.616 123.221 23.083 58.411 39.040 121.856 44.715 177.92 0.824 9.028 1.715 16.342 2.794 23.596l-0.277-2.262c0.469 1.664 19.115 2.133 85.717 2.133h85.12l-1.408-10.667z" />
<glyph unicode="&#xe919;" glyph-name="external-link" d="M626.048 871.979c-6.143-2.204-11.372-5.647-15.603-10.056l-0.013-0.014c-7.994-7.494-12.974-18.119-12.974-29.908 0-11.768 4.963-22.377 12.91-29.848l0.021-0.020c12.715-12.715 13.483-12.8 103.723-12.8h78.592l-201.6-201.813c-185.045-185.259-201.771-202.496-204.331-210.219-1.465-4.311-2.456-9.301-2.766-14.475l-0.008-0.159c0-17.28 13.184-35.243 29.44-40.064 11.008-3.285 15.445-3.285 27.008 0.085 9.045 2.645 14.037 7.467 211.072 204.373l201.813 201.643v-79.445c0-90.453-0.043-89.984 13.056-103.125 7.68-7.637 19.541-12.8 29.611-12.8 10.112 0 21.931 5.12 29.739 12.928 13.44 13.44 12.928 7.040 12.928 160.171l-0.043 134.955-4.011 8.533c-4.266 9.604-11.858 17.086-21.282 21.105l-0.265 0.1c-7.509 3.413-10.411 3.456-143.36 3.371-113.109-0.043-137.003-0.469-143.659-2.517zM191.957 744.832c-48.847-8.907-87.663-44.136-101.606-90.173l-0.239-0.92-3.925-13.739v-512l3.925-13.739c12.998-42.417 45.733-75.152 87.218-87.903l0.931-0.246 13.739-3.925h512l13.739 3.925c41.883 12.824 74.321 44.853 87.463 85.554l0.26 0.931 4.309 13.696 0.512 141.397c0.597 160.896 1.109 153.685-12.544 167.339-7.665 7.634-18.092 12.499-29.651 12.968l-0.088 0.003c-9.515 0-21.76-5.12-28.971-12.075-13.653-13.269-12.757-2.645-13.696-159.445l-0.853-139.947-4.736-8.064c-5.205-8.884-13.166-15.672-22.692-19.27l-0.305-0.101c-9.472-3.371-488.021-3.371-497.493 0-9.832 3.699-17.793 10.487-22.884 19.162l-0.113 0.208-4.736 8.064-0.469 243.797c-0.256 160.256 0.171 245.973 1.28 250.197 2.56 9.387 10.709 19.669 20.011 25.131l8.192 4.821 139.947 0.853c156.8 0.939 146.176 0.043 159.445 13.696 6.955 7.211 12.075 19.456 12.075 28.971 0 10.112-5.12 21.931-12.928 29.739-13.483 13.483-6.784 12.971-161.877 12.715-75.179-0.085-140.544-0.853-145.237-1.621z" />
<glyph unicode="&#xe91a;" glyph-name="error" d="M495.809 902.267c-17.364-3.609-32.353-12.086-43.916-23.923l-0.016-0.016c-9.689-9.791-32.962-49.366-226.888-385.906-118.878-206.23-217.867-379.806-220.020-385.752-17.429-48.238 12.713-101.346 63.463-111.906 6.766-1.435 133.591-2 443.526-2s436.758 0.564 443.526 2c26.435 5.807 47.956 23.069 59.443 46.196l0.226 0.504c5.578 10.862 8.848 23.699 8.848 37.3 0 10.447-1.929 20.445-5.45 29.654l0.191-0.57c-4.306 12.15-435.016 758.073-443.064 767.3-8.766 9.996-25.478 21.069-37.064 24.504-8.432 2.277-18.113 3.585-28.098 3.585-5.185 0-10.289-0.352-15.287-1.035l0.581 0.065zM519.492 804.2c1.435-1.743 94.426-162.298 206.588-356.789 144.1-249.905 203.923-355.251 203.923-358.941 0-2.923-0.974-6.253-2.153-7.433-3.127-3.127-828.661-3.127-831.788 0-1.179 1.179-2.153 4.511-2.153 7.433 0 3.691 59.824 109.036 203.923 358.941 112.163 194.49 205.153 355.045 206.588 356.789 1.965 1.87 4.606 3.047 7.519 3.127h0.015c2.666 0 6.049-1.435 7.536-3.127zM449.467 556.397c-2.864-2.57-5.116-5.762-6.554-9.366l-0.060-0.169c-0.615-2.461 1.64-50.955 5.024-107.805 6.562-111.599 6.152-108.626 16.917-115.699 4.255-2.768 9.74-3.178 47.162-3.178s42.907 0.41 47.162 3.178c10.766 7.075 10.356 4.101 16.917 115.699 3.384 56.85 5.639 105.345 5.024 107.805-1.496 3.773-3.749 6.965-6.589 9.515l-0.023 0.020-5.433 5.127h-114.111l-5.433-5.127zM499.705 294.136c-38.345-5.537-68.23-46.546-61.567-84.429 5.472-32.137 30.462-57.145 62.14-62.579l0.452-0.064c3.274-0.511 7.048-0.802 10.893-0.802 21.229 0 40.379 8.899 53.925 23.172l0.030 0.032c27.682 29.22 28.041 72.434 0.82 101.5-13.52 14.877-32.947 24.18-54.546 24.18-4.29 0-8.496-0.366-12.585-1.071l0.438 0.062z" />
<glyph unicode="&#xe91b;" glyph-name="download-cloud" d="M350.72 873.557c-28.715-3.371-49.536-7.083-67.413-11.947-107.846-29.918-194.8-102.861-242.793-198.702l-1.005-2.215c-23.35-45.526-37.616-99.124-39.031-155.913l-0.009-0.46c-0.186-4.427-0.292-9.623-0.292-14.843 0-60.824 14.384-118.288 39.937-169.176l-0.989 2.174c21.547-44.075 54.912-88.917 71.552-96.085 5.079-2.314 11.015-3.662 17.267-3.662 15.841 0 29.659 8.658 36.981 21.501l0.11 0.209c3.84 6.613 4.651 9.984 4.651 20.011 0.043 14.549-2.304 19.541-19.115 40.363-29.952 37.205-49.323 78.848-60.416 129.749-3.285 15.275-3.84 22.827-3.883 55.253-0.085 32.597 0.427 40.107 3.84 56.875 24.576 121.301 114.091 211.541 235.861 237.781 15.531 3.328 23.040 3.883 56.32 3.925 33.237 0.085 40.917-0.427 57.259-3.755 70.443-14.293 131.627-50.944 175.403-105.045 25.259-31.189 40.832-60.331 53.589-100.096 8.661-27.008 13.525-34.517 26.795-41.557 6.443-3.413 10.283-3.755 53.888-4.779 51.285-1.195 59.392-2.432 85.76-13.44 37.973-15.787 74.112-51.712 89.728-89.173 10.453-25.173 13.099-38.784 13.099-67.883 0-22.357-0.64-28.715-3.968-40.917-10.923-40.107-31.872-71.723-63.275-95.616-13.397-10.197-20.224-20.736-21.76-33.664-3.797-32.085 30.507-56.405 59.989-42.496 11.179 5.291 40.064 29.739 52.651 44.715 27.699 32.562 47.918 72.344 57.487 116.109l0.326 1.779c3.157 14.208 3.755 22.016 3.712 50.091 0 30.379-0.427 35.072-4.779 53.675-4.925 23.044-12.374 43.432-22.23 62.366l0.641-1.353c-25.352 50.072-65.199 89.699-113.986 114.107l-1.47 0.666c-33.749 16.683-66.219 24.533-109.269 26.283l-26.155 1.109-7.424 18.219c-35.746 85.19-98.833 153.037-178.089 193.942l-2.135 1.002c-44.032 22.272-82.304 33.963-129.365 39.467-19.2 2.219-64 3.029-77.995 1.408zM498.048 487.979c-11.136-3.413-22.741-15.275-26.112-26.752-2.261-7.509-2.603-28.629-2.603-151.253v-142.549l-52.48 52.139c-46.165 45.867-53.504 52.48-60.885 54.955-16.725 5.589-32.171 2.091-44.373-10.112-12.16-12.203-15.701-27.605-10.155-44.373 2.517-7.595 11.733-17.365 93.44-99.456 98.731-99.2 98.731-99.2 117.12-99.2 18.347 0 18.389 0 117.163 99.2 87.253 87.552 90.837 91.392 93.44 100.309 3.413 11.52 3.413 16 0.128 27.008-4.821 16.256-22.784 29.44-40.064 29.44-3.413 0-9.984-1.28-14.635-2.816-7.381-2.475-14.72-9.088-60.885-54.955l-52.48-52.139v142.549c0 161.579 0.555 154.24-12.928 167.765-11.904 11.904-26.88 15.403-43.691 10.24z" />
<glyph unicode="&#xe91c;" glyph-name="dot" d="M512 960c282.77 0 512-229.23 512-512s-229.23-512-512-512c-282.77 0-512 229.23-512 512s229.23 512 512 512z" />
<glyph unicode="&#xe91d;" glyph-name="cog-6-tooth" d="M444.203 862.592c-30.080-3.883-58.197-30.037-65.067-60.459-1.067-4.693-3.883-20.224-6.229-34.56-2.389-14.293-5.205-27.947-6.315-30.336-2.176-4.779-18.688-15.573-27.605-18.048-4.864-1.323-9.216-0.213-31.104 8.064-37.248 14.080-44.203 15.957-58.965 16-14.592 0-29.397-3.883-41.259-10.837-14.549-8.491-24.576-22.144-54.4-73.771-7.454-12.006-18.38-31.304-28.892-50.858l-4.004-8.15c-10.923-23.936-7.339-56.875 8.619-78.72 3.243-4.437 17.621-17.792 31.915-29.653s27.136-23.168 28.544-25.173c3.541-4.992 3.541-31.189 0-36.181-1.408-2.005-14.251-13.312-28.544-25.173s-28.672-25.216-31.915-29.653c-15.957-21.845-19.541-54.784-8.619-78.72 2.432-5.291 17.237-31.872 32.896-59.008 29.824-51.627 39.851-65.28 54.4-73.771 11.861-6.955 26.667-10.837 41.259-10.837 14.763 0.043 21.717 1.92 58.965 16 22.357 8.448 26.155 9.429 31.36 7.979 9.045-2.475 24.32-12.331 26.923-17.365 1.28-2.432 4.309-16.256 6.699-30.72 2.389-14.421 5.205-30.080 6.272-34.773 7.92-31.732 33.911-55.701 66.16-60.532l0.442-0.054c16.213-2.091 116.309-2.091 132.523 0 32.692 4.886 58.682 28.854 66.485 60.032l0.118 0.555c1.067 4.693 3.883 20.352 6.272 34.773 2.389 14.464 5.419 28.288 6.699 30.72 2.603 5.035 17.877 14.891 26.923 17.365 5.205 1.451 9.003 0.469 31.36-7.979 37.248-14.080 44.203-15.957 58.965-16 14.592 0 29.397 3.883 41.259 10.837 14.592 8.533 24.576 22.101 54.485 74.027 15.744 27.264 30.549 53.803 32.896 58.965 10.837 23.68 7.211 56.747-8.704 78.507-3.243 4.437-17.621 17.792-31.915 29.653s-27.136 23.168-28.544 25.173c-1.792 2.517-2.56 7.936-2.56 18.091s0.768 15.573 2.56 18.091c1.408 2.005 14.251 13.312 28.544 25.173s28.672 25.216 31.915 29.653c15.915 21.76 19.541 54.827 8.704 78.507-14.424 27.528-25.35 46.813-36.684 65.825l3.788-6.86c-29.909 51.925-39.893 65.493-54.485 74.027-11.796 6.816-25.947 10.838-41.038 10.838-0.078 0-0.155 0-0.233 0h0.012c-14.763-0.043-21.717-1.92-58.965-16-22.357-8.448-26.155-9.429-31.36-7.979-9.045 2.475-24.32 12.331-26.923 17.365-1.28 2.432-4.309 16.256-6.699 30.72-2.713 17.319-4.903 29.11-7.311 40.821l1.039-6.048c-7.92 31.732-33.911 55.701-66.16 60.532l-0.442 0.054c-14.976 1.92-118.997 1.835-134.059-0.128zM577.749 795.733c4.096-3.541 4.992-6.827 10.368-38.827 4.949-29.227 6.869-36.992 11.776-47.104 7.381-15.147 19.968-27.904 38.4-38.869 24.192-14.379 44.117-18.944 64.981-14.848 16.551 4.461 29.916 8.92 42.958 14.024l-2.808-0.968c16.256 6.016 31.104 10.965 33.024 10.965 1.877 0 5.76-2.133 8.533-4.693 5.291-4.864 59.051-96.555 60.843-103.808 2.176-8.619-0.725-12.288-27.051-34.091-27.392-22.656-34.773-30.464-41.685-44.075-12.117-23.851-12.075-67.157 0.128-91.136 6.784-13.355 14.293-21.248 41.557-43.819 26.325-21.803 29.227-25.472 27.051-34.091-1.792-7.253-55.552-98.944-60.843-103.808-2.773-2.603-6.656-4.693-8.533-4.693-1.92 0-16.768 4.949-33.024 10.965-10.234 4.136-23.599 8.595-37.247 12.371l-2.902 0.685c-20.864 4.096-40.789-0.469-64.981-14.848-18.432-10.965-31.019-23.723-38.4-38.869-4.907-10.112-6.827-17.877-11.776-47.104-5.376-32-6.272-35.285-10.368-38.827-4.48-3.84-4.608-3.84-65.749-3.84s-61.269 0-65.749 3.84c-4.096 3.541-4.992 6.869-10.453 38.827-7.040 41.515-11.733 53.376-26.88 68.437-13.147 12.018-28.56 21.829-45.485 28.69l-1.022 0.366c-8.148 2.884-17.545 4.551-27.332 4.551-5.056 0-10.008-0.445-14.819-1.298l0.509 0.075c-5.803-1.152-23.893-6.997-40.277-13.056-16.384-6.016-31.275-10.965-33.067-10.965-1.835 0-5.632 2.133-8.405 4.693-5.333 4.907-59.008 96.427-60.843 103.723-2.176 8.747 0.683 12.331 27.051 34.176 27.392 22.656 34.773 30.464 41.685 44.075 12.032 23.595 12.032 67.285 0 90.88-6.912 13.611-14.293 21.419-41.685 44.075-26.368 21.845-29.227 25.429-27.051 34.176 1.835 7.296 55.509 98.816 60.843 103.723 2.773 2.56 6.656 4.693 8.533 4.693 1.92 0 16.768-4.949 33.024-10.965 16.299-6.016 34.347-11.904 40.149-13.056 12.757-2.475 28.757-1.237 41.685 3.328 17.946 7.227 33.36 17.038 46.624 29.162l-0.117-0.106c15.147 15.061 19.84 26.923 26.88 68.437 5.461 31.957 6.357 35.285 10.453 38.827 4.48 3.84 4.608 3.84 65.749 3.84s61.269 0 65.749-3.84zM494.72 606.635c-44.697-5.066-83.273-27.807-109.129-60.955l-0.268-0.357c-10.155-13.355-24.021-41.301-27.691-55.723-3.070-12.496-4.832-26.843-4.832-41.6s1.761-29.104 5.085-42.84l-0.253 1.24c3.669-14.421 17.536-42.368 27.691-55.723 15.616-20.565 34.859-35.712 60.629-47.744 19.162-9.079 41.633-14.379 65.341-14.379 5.735 0 11.397 0.31 16.971 0.915l-0.69-0.061c18.6 1.412 35.76 6.252 51.296 13.89l-0.822-0.365c36.48 17.024 59.989 40.107 77.355 75.947 8.277 15.531 13.728 33.754 15.162 53.094l0.027 0.453c0.544 4.884 0.854 10.546 0.854 16.281 0 23.708-5.301 46.178-14.781 66.29l0.402-0.949c-18.773 40.192-48.128 67.627-89.899 83.925-18.816 7.381-49.963 11.093-72.448 8.661zM536.491 540.885c16.043-4.139 29.739-12.245 42.923-25.472 19.456-19.456 28.16-40.277 28.16-67.413s-8.704-47.957-28.16-67.413c-19.456-19.456-40.277-28.16-67.413-28.16s-47.957 8.704-67.413 28.16c-19.456 19.456-28.16 40.277-28.16 67.413s8.704 47.957 28.16 67.413c19.584 19.541 39.083 27.819 66.304 28.032 8.661 0.085 19.627-1.024 25.6-2.56z" />
<glyph unicode="&#xe91e;" glyph-name="code" d="M325.973 743.765c-6.656-2.261-25.728-20.651-142.72-137.685-123.349-123.349-135.296-135.765-137.813-143.445-1.662-4.349-2.625-9.38-2.625-14.635s0.963-10.285 2.721-14.924l-0.096 0.289c2.517-7.68 14.507-20.139 137.813-143.531 131.243-131.328 135.296-135.168 144.299-137.813 11.563-3.371 16-3.371 27.008-0.085 11.904 3.541 23.296 14.933 26.837 26.837 3.285 11.008 3.285 15.445-0.128 27.008-2.603 8.96-6.443 13.013-118.997 125.739l-116.267 116.48 116.267 116.48c112.555 112.725 116.395 116.779 118.997 125.739 3.413 11.563 3.413 16 0.128 27.008-6.613 22.315-32.085 34.517-55.424 26.539zM667.733 743.808c-9.771-3.456-21.589-15.531-25.003-25.557-1.638-4.275-2.586-9.219-2.586-14.386 0-5.209 0.964-10.193 2.724-14.783l-0.095 0.283c2.56-7.637 13.44-19.072 118.997-124.885l116.224-116.48-116.224-116.48c-105.557-105.813-116.437-117.248-118.997-124.885-1.465-4.311-2.456-9.301-2.766-14.475l-0.008-0.159c0-17.28 13.184-35.243 29.44-40.064 11.008-3.285 15.445-3.285 27.008 0.085 9.003 2.645 13.056 6.528 144.384 137.813 131.285 131.328 135.168 135.381 137.813 144.384 1.493 5.12 2.688 11.307 2.688 13.781s-1.195 8.661-2.688 13.781c-2.645 9.003-6.485 13.056-137.813 144.299-123.392 123.307-135.851 135.296-143.531 137.813-4.367 1.596-9.408 2.519-14.665 2.519-5.346 0-10.469-0.955-15.208-2.703l0.305 0.098z" />
<glyph unicode="&#xe91f;" glyph-name="chevron-left" d="M624.64 743.765c-6.656-2.261-25.728-20.651-142.72-137.685-123.349-123.349-135.296-135.765-137.813-143.445-1.662-4.349-2.625-9.38-2.625-14.635s0.963-10.285 2.721-14.924l-0.096 0.289c2.517-7.68 14.507-20.139 137.813-143.531 131.243-131.328 135.296-135.168 144.299-137.813 11.563-3.371 16-3.371 27.008-0.085 11.904 3.541 23.296 14.933 26.837 26.837 3.285 11.008 3.285 15.445-0.128 27.008-2.603 8.96-6.443 13.013-118.997 125.739l-116.267 116.48 116.267 116.48c112.555 112.725 116.395 116.779 118.997 125.739 3.413 11.563 3.413 16 0.128 27.008-6.613 22.315-32.085 34.517-55.424 26.539z" />
<glyph unicode="&#xe920;" glyph-name="check-circle" d="M476.16 916.267c-108.757-10.197-204.672-51.968-281.173-122.453-84.224-77.611-134.784-177.152-149.12-293.76-3.413-27.819-2.56-87.723 1.707-116.693 12.629-86.315 44.971-161.28 98.347-228.053 63.802-79.539 151.829-137.297 252.796-162.19l3.204-0.668c107.691-25.685 220.288-13.184 317.44 35.243 47.648 23.527 88.395 53.219 123.29 88.687l0.059 0.060c66.816 66.517 109.397 145.067 128.427 236.843 6.059 29.013 8.448 53.035 9.6 95.573 0.939 35.285 0.725 42.283-1.707 50.645-5.748 17.339-21.521 29.75-40.286 30.419l-0.077 0.002c-10.112 0-21.931-5.12-29.739-12.928-11.349-11.349-12.928-18.347-12.928-56.96 0-112.981-36.139-204.629-110.635-280.576-126.208-128.64-322.432-152.021-476.459-56.789-23.339 14.421-44.373 31.445-67.499 54.656-45.952 46.037-74.624 92.16-94.037 151.211-12.136 35.702-19.141 76.826-19.141 119.587 0 105.387 42.549 200.836 111.405 270.107l-0.019-0.019c61.252 61.88 143.313 103.060 234.814 112.17l1.602 0.129c23.211 2.347 70.869 1.067 93.141-2.517 33.925-5.656 64.178-14.408 92.858-26.204l-2.832 1.031c20.395-8.107 31.701-8.789 44.8-2.603 9.813 4.651 14.336 9.131 19.797 19.712 7.723 14.933 3.925 36.651-8.448 48.555-9.472 9.045-59.392 27.819-96.683 36.352-35.029 8.021-59.264 10.837-98.133 11.52-6.147 0.169-13.382 0.265-20.639 0.265-8.346 0-16.663-0.127-24.948-0.379l1.213 0.029zM924.16 829.184c-8.021-2.432-20.48-14.464-210.347-204.203l-201.771-201.643-50.816 50.517c-33.664 33.536-53.376 51.84-58.453 54.4-10.24 5.163-27.008 5.333-36.736 0.384-8.669-4.509-15.578-11.378-20.016-19.757l-0.123-0.254c-5.077-9.643-5.035-28.075 0.043-37.589 2.091-3.84 33.963-37.035 72.491-75.435 74.453-74.24 76.032-75.52 93.568-75.563 19.157-0.043 7.979-10.368 245.205 227.2 213.717 214.016 218.795 219.264 221.44 228.309 3.371 11.563 3.371 16 0.085 27.008-4.821 16.256-23.083 29.653-39.936 29.312-3.371-0.043-9.941-1.28-14.635-2.688z" />
<glyph unicode="&#xe921;" glyph-name="book-open-light" d="M232.96 830.891c-37.396-2.282-72.367-8.921-105.611-19.445l3.083 0.842c-16.597-5.163-20.011-6.869-25.216-12.672-3.362-3.773-6.034-8.246-7.765-13.162l-0.085-0.278c-1.28-4.693-1.707-100.992-1.408-316.373l0.469-309.632 4.693-7.083c9.429-14.293 24.192-17.237 48.213-9.728 31.623 10.289 68.011 16.222 105.784 16.222 0.865 0 1.73-0.003 2.594-0.009l-0.132 0.001c80.128-0.085 157.525-27.904 221.269-79.531 29.227-23.68 37.077-23.68 66.304 0 39.37 31.996 86.426 56.227 137.876 69.543l2.54 0.558c58.24 14.635 128.896 12.117 189.099-6.784 17.749-5.547 28.203-5.547 37.675 0 4.498 2.804 8.251 6.366 11.183 10.545l0.081 0.122 3.968 6.4v311.467c0 171.307-0.597 313.6-1.323 316.203-1.87 4.434-4.372 8.236-7.442 11.497l0.018-0.019c-5.248 5.845-8.619 7.509-25.131 12.672-93.184 29.013-193.365 25.301-281.003-10.496-30.933-12.629-67.029-32.597-89.173-49.365-5.419-4.096-10.581-7.424-11.52-7.424s-6.101 3.328-11.52 7.424c-22.144 16.768-58.24 36.736-89.173 49.365-45.353 18.921-98.044 29.911-153.301 29.911-8.811 0-17.557-0.279-26.23-0.83l1.185 0.060zM297.813 765.269c64.9-7.963 122.896-32.546 171.093-69.318l-0.853 0.625 11.52-8.619v-264.192c0-145.323-0.299-264.192-0.683-264.192s-5.589 2.987-11.563 6.613c-45.696 27.776-104.192 47.531-162.688 54.912-32.683 4.139-102.144 1.408-128.853-5.12l-10.667-2.517-4.693-1.067v542.507l18.347 4.267c23.231 5.453 49.905 8.58 77.309 8.58 14.707 0 29.204-0.9 43.438-2.649l-1.707 0.171zM808.96 765.312c8.917-0.939 24.875-3.627 35.413-6.016l19.2-4.352v-542.549l-4.693 1.067-10.667 2.517c-26.709 6.528-96.171 9.259-128.853 5.12-58.496-7.381-116.992-27.136-162.688-54.912-5.973-3.627-11.179-6.613-11.563-6.613s-0.683 118.869-0.683 264.192v264.192l11.52 8.619c74.24 55.552 158.976 78.592 253.013 68.736z" />
<glyph unicode="&#xe922;" glyph-name="accept" d="M0.182 494.727c0 12.727 4.545 23.637 13.636 32.728s20 13.636 32.727 13.636c12.727 0 23.636-4.546 32.727-13.636l246.546-246.546 525.818 525.818c9.090 9.091 20 13.636 32.727 13.636 6.545 0 12.546-1.273 18-3.818 5.818-2.182 10.727-5.455 14.727-9.818 4.364-4 7.819-8.909 10.364-14.727 2.545-5.454 3.818-11.454 3.818-18 0-12.727-4.727-23.818-14.181-33.273l-558.545-558.546c-9.090-9.090-20-13.636-32.727-13.636s-23.637 4.546-32.727 13.636l-279.273 279.273c-9.091 9.091-13.636 20.182-13.636 33.273z" />
<glyph unicode="&#xe923;" glyph-name="x-circle" d="M477.22 959.754c-104.669-9.066-193.789-42.417-274.613-102.912-27.912-20.879-78.571-71.537-99.45-99.45-54.066-72.252-86.208-150.439-99.615-242.526-4.505-30.769-4.505-102.966 0-133.735 13.407-91.812 45.713-170.493 99.615-242.526 20.879-27.912 71.537-78.571 99.45-99.45 69.814-52.964 155.23-88.98 248.253-100.407l2.514-0.252c24.78-3.022 92.472-3.022 117.252 0 95.537 11.679 180.953 47.694 252.061 101.599l-1.294-0.94c27.912 20.879 78.571 71.537 99.45 99.45 52.964 69.814 88.98 155.23 100.407 248.253l0.252 2.514c3.022 24.78 3.022 92.472 0 117.252-11.679 95.537-47.694 180.953-101.599 252.061l0.94-1.294c-20.879 27.912-71.537 78.571-99.45 99.45-67.375 51.25-149.486 86.63-238.935 99.086l-2.712 0.309c-20 2.802-84.889 5-102.526 3.517zM557.824 848.162c201.689-24.165 356.602-193.998 357.085-400.111v-0.049c-0.318-158.039-91.365-294.737-223.811-360.808l-2.341-1.057c-51.592-25.836-112.408-40.959-176.756-40.959s-125.164 15.124-179.086 42.011l2.33-1.052c-121.177 60.319-206.695 176.434-223.27 313.781l-0.19 1.931c-1.647 13.692-2.587 29.549-2.587 45.625 0 158.248 91.095 295.22 223.707 361.337l2.341 1.056c51.683 25.785 112.583 40.877 177.007 40.877 16.057 0 31.897-0.938 47.465-2.761l-1.891 0.18zM363.43 641.514c-18.626-5.165-41.483-28.791-45.384-47.032-0.574-2.728-0.904-5.864-0.904-9.074 0-8.787 2.462-16.998 6.732-23.984l-0.115 0.202c2.143-3.571 27.802-30.604 57.033-60.055l53.187-53.571-54.066-54.45c-59.45-59.89-62.637-64.176-62.637-82.912 0-13.736 5.604-25.165 18.901-38.461s24.725-18.901 38.461-18.901c18.736 0 23.022 3.187 82.857 62.637l54.505 54.066 54.505-54.066c59.835-59.45 64.12-62.637 82.857-62.637 13.736 0 25.165 5.604 38.461 18.901s18.901 24.725 18.901 38.461c0 18.736-3.187 23.022-62.637 82.857l-54.066 54.505 54.066 54.505c59.45 59.835 62.637 64.12 62.637 82.857 0 13.736-5.604 25.165-18.901 38.461s-24.725 18.901-38.461 18.901c-18.736 0-23.022-3.187-82.857-62.637l-54.505-54.066-54.505 54.066c-56.209 55.823-62.087 60.548-78.296 62.746-1.183 0.104-2.557 0.163-3.947 0.163-4.2 0-8.274-0.541-12.155-1.556l0.334 0.074z" />
<glyph unicode="&#xe924;" glyph-name="window" d="M928 896h-832c-53 0-96-43-96-96v-704c0-53.002 43-96 96-96h832c53.002 0 96 42.998 96 96v704c0 53-42.998 96-96 96zM768 736c0 35.4 28.601 64 64 64s64-28.601 64-64c0-35.4-28.601-64-64-64s-64 28.601-64 64zM576 736c0 35.4 28.601 64 64 64s64-28.601 64-64c0-35.4-28.601-64-64-64s-64 28.601-64 64zM384 736c0 35.4 28.601 64 64 64s64-28.601 64-64c0-35.4-28.601-64-64-64s-64 28.601-64 64zM928 108c0-6.6-5.402-12.002-12.002-12.002h-807.999c-6.601 0-12.001 5.402-12.001 12.002v467.999h832v-467.999z" />
<glyph unicode="&#xe925;" glyph-name="whats-app" d="M449.338 940.219c-214.705-26.83-391.653-197.382-426.239-410.843-15.906-98.153 1.302-206.781 48.511-306.010 7.471-15.736 13.586-31.076 13.586-34.075 0-2.944-13.586-46.076-30.17-95.776s-29.265-93.286-28.132-96.853c2.887-9 42.511-44.662 49.642-44.662 3.171 0 48.624 13.586 100.983 30.226l95.154 30.17 27.962-12.849c225.516-103.588 485.505-30.51 625.433 175.76 50.944 75.059 80.438 174.233 80.606 271.029 0.282 133.419-48.624 254.666-139.986 347.048-38.718 39.17-66.116 60.398-111.684 86.494-90.511 51.907-199.987 73.53-305.67 60.343zM562.549 857.235c182.467-23.518 326.428-163.059 356.392-341.282l0.337-2.426c6.734-41.945 2.944-128.72-7.188-166.873-34.587-129.401-125.382-232.365-247.65-280.989-53.604-21.34-91.983-28.586-150.911-28.529-69.455 0.057-123.74 13.416-193.025 47.548l-38.267 18.85-72.454-23.209c-39.849-12.794-73.305-22.358-74.378-21.285-1.075 1.020 8.66 33.681 21.622 72.569 22.812 68.435 23.321 70.927 17.266 80.438-15.283 23.716-41.209 78.907-51.341 109.191-41.945 125.098-23.095 254.611 53.152 364.823 22.473 32.548 71.040 80.438 105.002 103.475 64.791 44.325 144.858 70.783 231.102 70.783 17.745 0 35.228-1.121 52.382-3.293l-2.038 0.211zM317.277 680.909c-29.831-18.171-50.039-57.681-53.662-104.778-3.453-45.171 10.868-88.021 47.833-142.758 22.7-33.681 76.758-97.19 106.305-124.985 41.151-38.718 100.192-71.889 168.627-94.815 36.115-12.058 43.19-13.244 71.097-11.774 26.38 1.415 35.32 3.792 59.777 15.849 42.454 20.944 60.568 49.417 57.851 90.965l-1.19 18.85-56.606 29.152c-35.832 18.509-60.286 28.868-66.623 28.303-7.301-0.624-17.039-9.057-36.001-31.021-14.831-17.206-29.547-30.737-34.19-31.415-20.32-2.944-83.098 36.171-123.401 76.87-30.058 30.342-62.436 76.134-62.436 88.248 0 4.416 9.339 19.020 20.719 32.491 16.021 18.85 20.774 27.284 20.774 36.907 0 13.981-42.68 123.117-49.983 127.757-9.566 6.056-57.002 3.396-68.889-3.85z" />
<glyph unicode="&#xe926;" glyph-name="webcam" d="M865.997 82.801l-98.376 61.501c116.137 80.916 192.379 215.316 192.379 367.698 0 247.42-200.581 448-448.001 448s-448-200.58-448-448c0-152.381 76.24-286.781 192.46-367.698l-98.46-61.501c-9.191-5.765-16.766-13.768-22.014-23.265-5.247-9.492-7.995-20.168-7.986-31.017v-28.518c0-16.973 6.743-33.254 18.745-45.256s28.281-18.744 45.255-18.744h640.001c16.973 0 33.249 6.743 45.256 18.744 12.001 12.001 18.744 28.283 18.744 45.256v28.518c0.010 10.849-2.739 21.524-7.987 31.017-5.248 9.498-12.82 17.5-22.016 23.265zM511.999 160c-69.619 0-137.675 20.644-195.561 59.32-57.886 38.682-103.003 93.655-129.645 157.978-26.642 64.317-33.613 135.093-20.031 203.374s47.107 131.001 96.335 180.23c49.228 49.228 111.948 82.753 180.23 96.335s139.058 6.611 203.375-20.031c64.323-26.642 119.296-71.759 157.972-129.645 38.682-57.886 59.325-125.942 59.325-195.561 0-46.225-9.103-91.996-26.798-134.702-17.69-42.711-43.617-81.516-76.303-114.202s-71.491-58.614-114.196-76.303c-42.706-17.69-88.479-26.793-134.703-26.793zM511.999 800c-158.82 0-288-129.18-288-288 0-158.822 129.18-288 288-288 158.818 0 288.001 129.178 288.001 288 0 158.82-129.183 288-288.001 288zM511.999 320c-37.974 0-75.096 11.259-106.67 32.358-31.574 21.094-56.183 51.082-70.715 86.164-14.532 35.085-18.334 73.69-10.926 110.935s25.695 71.455 52.547 98.307c26.851 26.852 61.063 45.138 98.307 52.546s75.848 3.607 110.93-10.926c35.087-14.532 65.070-39.141 86.17-70.715 21.094-31.575 32.358-68.696 32.358-106.67-0.056-50.905-20.301-99.712-56.294-135.706-35.999-35.994-84.803-56.243-135.707-56.294zM511.999 640c-33.936-0.037-66.472-13.535-90.469-37.531s-37.494-56.532-37.531-90.469c0-8.487 3.372-16.626 9.373-22.627s14.14-9.373 22.627-9.373c8.487 0 16.626 3.372 22.627 9.373s9.373 14.14 9.373 22.627c0 16.974 6.743 33.252 18.745 45.255s28.281 18.745 45.255 18.745c8.487 0 16.626 3.372 22.627 9.373s9.374 14.14 9.374 22.627-3.374 16.626-9.374 22.627c-6.001 6.001-14.14 9.373-22.627 9.373z" />
<glyph unicode="&#xe927;" glyph-name="webcam-slash" d="M1008.198 108.25l-944.986 738.746c-2.592 2.075-5.567 3.619-8.756 4.545s-6.528 1.214-9.831 0.847c-3.3-0.365-6.496-1.376-9.404-2.979s-5.476-3.758-7.549-6.349l-15.804-19.737c-2.080-2.593-3.628-5.572-4.556-8.762s-1.217-6.536-0.852-9.84c0.365-3.303 1.38-6.504 2.982-9.415s3.766-5.48 6.36-7.555l944.986-738.748c2.593-2.075 5.567-3.619 8.759-4.543 3.189-0.928 6.53-1.215 9.824-0.85 3.301 0.365 6.496 1.375 9.406 2.977s5.472 3.758 7.549 6.351l15.807 19.737c2.081 2.593 3.628 5.572 4.556 8.762s1.217 6.534 0.853 9.839c-0.368 3.301-1.38 6.5-2.98 9.414-1.606 2.912-3.767 5.482-6.365 7.557zM726.25 424.913c8.026 23.23 13.307 47.739 13.307 73.654 0 125.487-102.070 227.556-227.556 227.556-43.95-0.044-86.928-12.912-123.67-37.025l64.789-50.71c24.807 11.133 52.186 15.283 79.178 12.005s52.578-13.862 73.998-30.609c21.425-16.746 37.869-39.024 47.562-64.428 9.696-25.404 12.277-52.973 7.46-79.735l64.934-50.709zM512 776.69c45.778-0.002 90.848-11.302 131.214-32.899 40.361-21.599 74.771-52.826 100.17-90.913 25.401-38.086 41.004-81.854 45.432-127.418 4.429-45.565-2.46-91.517-20.053-133.781l61.042-47.723c23.713 48.096 36.090 100.992 36.173 154.613 0 195.492-158.485 353.975-353.975 353.975-83.069 0.098-163.499-29.151-227.097-82.584l61.628-48.198c47.791 35.671 105.831 54.94 165.469 54.929zM512 271.012c12.378 0.228 24.721 1.478 36.9 3.731l-262.591 205.29c9.624-116.701 106.556-209.019 225.691-209.019zM512 220.444c-73.763 0-144.506 29.299-196.665 81.459s-81.46 122.899-81.46 196.665c0 7.301 0.537 14.459 1.090 21.602l-68.725 53.727c-5.425-24.744-8.178-49.997-8.219-75.33 0-120.399 60.223-226.593 152.067-290.525l-77.796-48.593c-7.263-4.554-13.246-10.878-17.394-18.381-4.147-7.498-6.318-15.935-6.31-24.508v-22.533c0-13.41 5.327-26.275 14.812-35.758s22.346-14.81 35.756-14.81h505.679c19.579 0 36.045 11.457 44.467 27.719l-209.399 163.677c-28.334-9.505-58.020-14.372-87.909-14.409z" />
<glyph unicode="&#xe928;" glyph-name="video-plus" d="M966.934 732.444c-11.023 0-22.223-3.2-32.354-10.133l-195.024-121.6v103.644c0 46.933-41.242 84.978-92.088 84.978h-555.379c-50.845 0-92.089-38.044-92.089-84.978v-512.71c0-46.935 41.244-84.979 92.089-84.979h555.379c50.845 0 92.088 38.043 92.088 84.979v103.642l195.024-121.419c10.131-7.113 21.508-10.136 32.354-10.136 29.51 0 57.067 23.11 57.067 56.002v456.71c0 32.889-27.557 56-57.067 56zM654.223 193.957c-1.065-0.714-3.199-1.957-6.754-1.957h-555.379c-3.555 0-5.689 1.065-6.755 1.957v508.087c1.066 0.711 3.2 1.955 6.755 1.955h555.379c3.554 0 5.689-1.066 6.754-1.955v-508.087zM938.667 271.645l-199.111 124.089v104.355l199.111 124.089v-352.533zM512.001 490.667h-99.555v99.555c0 15.644-12.8 28.444-28.444 28.444h-28.444c-15.644 0-28.444-12.8-28.444-28.444v-99.555h-99.555c-15.644 0-28.444-12.8-28.444-28.444v-28.444c0-15.644 12.8-28.444 28.444-28.444h99.555v-99.555c0-15.646 12.8-28.444 28.444-28.444h28.444c15.644 0 28.444 12.798 28.444 28.444v99.555h99.555c15.646 0 28.444 12.8 28.444 28.444v28.444c0 15.644-12.798 28.444-28.444 28.444z" />
<glyph unicode="&#xe929;" glyph-name="user" d="M691.2 352c-57.4 0-85.002-32-179.2-32-94.2 0-121.6 32-179.2 32-148.4 0-268.8-120.402-268.8-268.8v-51.2c0-53.002 43-96 96-96h704c53.002 0 96 42.998 96 96v51.2c0 148.398-120.402 268.8-268.8 268.8zM864 32h-704v51.2c0 95.201 77.6 172.8 172.8 172.8 29.2 0 76.6-32 179.2-32 103.398 0 149.801 32 179.2 32 95.201 0 172.8-77.599 172.8-172.8v-51.2zM512 384c159.002 0 288 129 288 288s-128.998 288-288 288c-159 0-288-129-288-288s129-288 288-288zM512 864c105.8 0 192-86.2 192-192s-86.2-192-192-192c-105.8 0-192 86.2-192 192s86.2 192 192 192z" />
<glyph unicode="&#xe92a;" glyph-name="undo" d="M42.292 917.708l107.695-107.695c92.645 92.662 220.624 149.987 362.011 149.987 282.14 0 512.208-230.245 512.002-512.381-0.206-282.597-229.355-511.619-512-511.619-131.976 0-252.288 49.934-343.077 131.939-10.556 9.534-11.051 25.934-0.995 35.992l40.749 40.748c9.286 9.286 24.264 9.878 34.067 1.142 71.502-63.749 165.814-102.463 269.256-102.463 223.631 0 404.642 180.974 404.642 404.642 0 223.63-180.974 404.645-404.642 404.645-111.82 0-212.969-45.26-286.171-118.474l111.748-111.75c15.608-15.608 4.554-42.292-17.517-42.292h-295.286c-13.682 0-24.774 11.093-24.774 24.774v295.286c0 22.072 26.686 33.125 42.292 17.519z" />
<glyph unicode="&#xe92b;" glyph-name="trash" d="M406.257 934.665c11.374 1.843 6.727 0.879 2.074-0.070l-15.83-2.701c-46.13-9.257-90.429-52.354-102.563-99.792-2.824-10.983-3.609-20.24-3.609-42.155v-28.085h-83.735c-101.83-0.052-109.101-0.889-122.386-14.487-8.995-9.153-12.238-21.182-11.402-41.946 0.575-15.325 1.412-18.985 5.701-26.36 9.886-16.894 22.124-21.548 56.486-21.548h23.483l0.471-291.529 0.523-291.529 4.236-13.703c14.617-45.645 49.858-80.886 94.471-95.217l1.032-0.286 13.756-4.185 235.044-0.575c254.447-0.575 251.78-0.627 276.256 9.257 34.036 13.891 60.846 39.633 75.788 71.98l0.363 0.875c12.657 26.987 12.029 10.565 12.029 328.14v286.403l27.929 0.68c30.021 0.836 37.448 2.824 46.444 12.761 10.25 11.245 14.645 30.962 11.506 50.994-3.609 23.013-15.168 34.571-38.284 38.338-7.060 1.098-45.711 1.935-94.718 1.935h-82.846v17.835c-0.052 49.321-9.048 77.564-33.839 106.695-17.348 20.332-40.002 35.654-65.826 43.863l-1.016 0.279c-13.546 4.080-15.325 4.185-120.817 4.549-58.891 0.157-108.735 0-110.722-0.419zM614.050 827.29c5.463-3.054 10.018-7.092 13.569-11.913l0.082-0.116c5.282-7.636 5.544-8.891 6.172-30.649l0.627-22.751h-246.131l0.785 21.653c0.68 19.351 1.308 22.49 5.649 29.916 4.116 7.739 10.987 13.556 19.274 16.201l0.235 0.065c2.615 0.785 46.758 1.465 98.17 1.569 93.411 0.157 93.411 0.157 101.569-3.975zM763.685 372.11l-0.471-285.409-5.649-7.009c-3.805-4.463-8.323-8.182-13.404-11.014l-0.246-0.127-8.055-4.132-224.322 0.052c-214.175 0.052-224.635 0.157-231.592 3.4-8.41 3.639-14.911 10.36-18.175 18.703l-0.079 0.229c-2.511 6.014-2.824 38.39-2.824 288.757v281.957h505.285l-0.471-285.409zM410.65 542.246c-16.684-2.981-27.354-10.932-34.309-25.68-2.772-5.753-3.086-20.711-3.557-150.001-0.366-99.582 0.104-146.602 1.517-153.348 2.615-12.604 11.088-23.693 22.803-29.655 8.055-4.132 11.297-4.655 27.458-4.603 21.286 0.104 31.329 3.609 40.586 14.122 10.983 12.553 10.67 7.060 10.67 167.888 0 158.996 0.366 152.668-9.728 166.319-8.734 11.872-34.309 18.724-55.44 14.958zM584.030 542.195c-13.823-2.094-25.26-10.713-31.219-22.563l-0.11-0.24-5.491-10.826v-294.981l4.811-10.25c5.963-12.761 13.86-18.933 29.131-22.856 28.242-7.218 53.399 1.412 64.592 22.124 3.923 7.322 3.975 7.741 4.446 153.61 0.575 166.161 0.994 160.566-13.076 174.112-4.173 4.025-9.146 7.252-14.656 9.414l-0.304 0.105c-7.522 2.042-16.158 3.216-25.069 3.216-4.605 0-9.136-0.313-13.575-0.92l0.516 0.057z" />
<glyph unicode="&#xe92c;" glyph-name="timer" d="M851.798 592l45.201 45.2c9.402 9.4 9.402 24.601 0 34l-33.997 34c-9.402 9.4-24.605 9.4-34.001 0l-41.401-41.4c-62.201 54.999-140.802 91.799-227.599 101.6v98.601h55.998c13.201 0 23.999 10.8 23.999 24v48c0 13.2-10.797 24-23.999 24h-208c-13.201 0-24-10.8-24-24v-48c0-13.201 10.8-24 24-24h56v-98.8c-207.2-23.801-368.001-199.6-368.001-413.198 0-229.804 186.2-416.001 416.001-416.001 229.799 0 416.001 186.197 416.001 416.001 0 89.398-28.201 172.199-76.202 239.998zM512 32c-176.801 0-320.001 143.201-320.001 320.001 0 176.798 143.2 319.998 320.001 319.998s320.001-143.2 320.001-319.998c0-176.801-143.201-320.001-320.001-320.001zM536 255.997h-48c-13.201 0-24 10.802-24 24.003v271.999c0 13.2 10.8 24 24 24h48c13.201 0 24.002-10.8 24.002-24v-271.999c0-13.201-10.801-24.003-24.002-24.003z" />
<glyph unicode="&#xe92d;" glyph-name="teams" d="M523.093 842.283c-49.075-6.653-88.736-40.803-103.305-86.192l-0.247-0.89c-3.413-10.965-3.968-16.256-3.84-36.693 0.128-20.992 0.64-25.344 4.395-35.84 2.347-6.571 4.608-13.099 4.992-14.507 0.64-2.261-18.005-2.645-157.995-3.413l-158.72-0.853-6.528-4.053c-4.362-3.010-8.041-6.648-11.002-10.829l-0.091-0.136-4.565-6.912-0.469-185.856c-0.299-121.643 0.171-188.075 1.28-192.299 1.838-4.997 4.553-9.276 7.99-12.855l-0.012 0.012c12.203-12.544 6.315-11.989 125.44-12.501l106.88-0.512 1.195-8.021c0.64-4.437 2.56-13.056 4.224-19.157 16.384-59.733 57.899-109.269 115.072-137.429 53.803-26.496 113.963-27.648 174.293-3.328 54.389 22.722 96.3 66.162 116.477 120.2l0.472 1.443c3.072 8.533 4.437 10.496 6.613 9.515 9.899-4.395 27.605-9.472 41.301-11.861 58.027-10.112 119.552 25.557 142.379 82.432 9.045 22.485 9.344 27.477 9.344 145.877l-0.043 109.739-4.053 8.747c-4.612 9.546-12.664 16.821-22.507 20.309l-0.277 0.085c-5.205 1.835-43.221 2.304-203.093 2.347l-196.693 0.085v36.693h25.173c28.245 0 38.101 2.304 61.013 14.165 17.792 9.216 42.368 34.347 50.944 52.053 12.971 26.88 16.896 58.709 10.581 85.675-14.251 60.843-74.069 102.357-136.619 94.763zM553.941 787.499c20.181-3.712 38.229-18.005 48.683-38.571 5.547-11.008 5.803-12.245 5.803-30.336s-0.256-19.328-5.717-29.781c-16.171-31.019-50.731-47.531-80.981-38.741-36.565 10.624-58.24 43.093-52.693 78.891 4.608 29.739 24.405 51.797 51.797 57.771 13.568 2.944 20.309 3.072 33.109 0.768zM798.805 770.517c-15.829-3.328-32.256-12.928-46.080-26.88-24.491-24.704-32.597-54.571-23.936-88.405 4.309-16.853 11.52-29.227 24.832-42.496 17.451-17.365 39.595-26.453 64.811-26.496 26.624 0 47.659 8.789 66.475 27.947 18.901 19.2 27.221 39.893 26.88 66.773-0.513 31.1-16.324 58.401-40.218 74.761l-0.316 0.204c-13.588 9.425-30.34 15.195-48.418 15.572l-0.094 0.002c-1.982 0.107-4.301 0.168-6.635 0.168-6.101 0-12.104-0.418-17.982-1.227l0.682 0.077zM828.757 717.141c22.059-5.717 34.347-27.947 28.032-50.688-4.053-14.464-19.925-25.813-36.437-25.941-25.685-0.256-40.832 14.251-40.832 39.083 0 22.315 14.251 36.821 38.869 39.552 0.981 0.128 5.632-0.768 10.368-2.005zM411.307 558.080v-33.28h-80.213v-213.333h-64.853v213.333h-80.213v66.56h225.28v-33.28zM697.6 370.773c-0.683-152.107 0.256-141.056-14.165-171.691-9.685-20.48-19.371-33.963-35.285-49.109-32.256-30.592-71.979-45.013-118.229-42.795-56.875 2.688-100.608 29.952-130.475 81.28-6.91 12.318-12.719 26.58-16.691 41.589l-0.29 1.291-1.451 6.528 51.413 0.512c57.344 0.64 58.496 0.811 69.888 12.544 3.383 3.508 6.089 7.695 7.892 12.333l0.087 0.254c1.024 3.84 1.707 50.731 1.707 124.331v118.187h186.155l-0.555-135.253zM885.76 412.587c0-55.979-0.725-97.792-1.792-104.277-6.955-42.795-48.469-73.387-90.496-66.688-13.241 2.253-24.998 7.342-35.058 14.631l0.242-0.167-6.016 4.565v245.376h133.12v-93.44z" />
<glyph unicode="&#xe92e;" glyph-name="stop-circle" d="M1008 448c0 274-221.998 496-496 496-274 0-496-222-496-496 0-274.002 222-496 496-496 274.002 0 496 221.998 496 496zM112 448c0 221 179 400 400 400s400-179 400-400c0-221-179-400-400-400s-400 179-400 400zM704 608v-320c0-17.603-14.397-32-32-32h-320c-17.6 0-32 14.397-32 32v320c0 17.6 14.4 32 32 32h320c17.603 0 32-14.4 32-32z" />
<glyph unicode="&#xe92f;" glyph-name="star" d="M494.449 937.786c-24.411-4.588-50.202-24.233-60.982-46.238-3.029-6.236-20.446-57.463-38.709-113.813l-40.402-124.236-7.172-21.782-278.585-0.98-10.691-4.276c-36.26-14.478-57.819-45.792-57.908-84.057 0-25.168 10.334-48.287 28.999-64.769 8.196-7.217 124.681-92.609 216.311-158.536 0.178-0.134-17.283-54.345-38.754-120.494 3.758 19.462-10.548-24.092-24.525-67.792l-17.436-63.126c-12.607-47.485 16.080-96.083 64.19-108.913 18.487-4.9 43.343-1.96 61.517 7.306 4.499 2.272 56.215 39.11 114.926 81.785 66.818 48.554 107.531 77.063 108.69 76.083 16.304-13.096 214.84-155.684 220.81-158.58 51.85-25.123 112.654 4.856 125.929 62.051 4.9 21.203 3.608 26.46-41.116 163.971-39.601 121.831-41.205 127.355-37.997 129.76l106.686 77.598c56.84 41.294 107.22 79.112 111.942 84.012 11.537 11.982 20.313 30.691 22.985 48.777 2.45 16.838-0.445 33.988-8.597 51.405-6.281 13.364-24.945 32.162-38.353 38.665-20.892 10.156-17.773 9.978-164.060 10.022-74.168 0-135.239 0.668-135.773 1.47-0.49 0.801-18.976 57.151-41.070 125.172s-42.674 128.735-45.837 134.927c-11.003 21.782-36.794 40.313-62.185 44.678-4.873 1.089-10.467 1.712-16.209 1.712-5.889 0-11.625-0.656-17.139-1.899l0.518 0.098zM557.881 709.894c24.634-75.861 46.238-140.763 47.975-144.192 3.786-7.395 10.958-14.389 19.555-18.932 5.924-3.163 14.298-3.386 157.422-4.232l151.23-0.89-118.267-85.883c-65.036-47.218-120.361-88.11-122.944-90.872-6.978-6.994-11.292-16.647-11.292-27.307 0-3.032 0.349-5.982 1.009-8.813l-0.051 0.261c1.025-4.588 21.916-69.981 46.416-145.306 24.455-75.325 44.278-137.243 43.966-137.511-0.312-0.312-54.479 38.62-120.361 86.506-65.927 47.886-123.435 88.422-127.8 90.070-3.83 1.399-8.25 2.207-12.861 2.207-6.499 0-12.624-1.608-17.996-4.446l0.21 0.101c-3.742-1.871-60.002-42.095-125.038-89.402-14.834-11.753-53.471-39.84-92.347-67.613l-26.321-17.868c34.13 115.457 49.447 161.86 65.103 208.106l-20.158-68.591c31.226 95.816 45.57 142.321 46.193 149.671 1.114 13.141-2.094 21.47-11.76 30.781-3.786 3.653-59.378 44.723-123.524 91.273l-116.619 84.635 150.741 0.89c140.138 0.846 151.23 1.114 157.824 4.098 8.424 3.477 15.098 9.775 18.971 17.693l0.095 0.214c1.915 3.786 23.609 68.733 48.153 144.326s44.991 138.134 45.481 138.936c0.445 0.801 1.159 1.114 1.515 0.757 0.401-0.356 20.847-62.764 45.481-138.669z" />
<glyph unicode="&#xe930;" glyph-name="sound" d="M841.026 778.986c-23.874 15.126-55.531 8.107-70.661-15.808-15.125-23.914-8.059-55.53 15.81-70.656 84.798-53.802 135.424-145.194 135.424-244.522s-50.626-190.741-135.424-244.521c-23.87-15.125-30.935-46.766-15.81-70.656 13.89-21.934 45.061-32.066 70.661-15.81 114.581 72.663 182.974 196.398 182.974 330.987 0 134.592-68.393 258.326-182.974 330.986zM721.557 611.99c-24.704 13.504-55.87 4.608-69.566-20.16-13.634-24.768-4.608-55.894 20.158-69.568 27.541-15.126 44.651-43.606 44.651-74.262s-17.111-59.136-44.631-74.262c-24.766-13.674-33.792-44.799-20.158-69.57 13.717-24.873 44.907-33.705 69.566-20.158 60.226 33.173 97.643 95.999 97.643 163.989s-37.417 130.838-97.664 163.99zM494.528 857.6c-12.608 0-25.43-4.65-35.798-15.040l-189.802-189.76h-217.728c-28.288 0-51.2-22.912-51.2-51.2v-307.2c0-28.267 22.912-51.2 51.2-51.2h217.728l189.802-189.762c10.39-10.389 23.211-15.038 35.798-15.038 26.304 0 51.607 20.311 51.607 51.241v716.717c0 30.954-25.323 51.242-51.607 51.242zM443.734 213.227l-132.395 132.373h-208.938v204.8h208.938l132.395 132.374v-469.546z" />
<glyph unicode="&#xe931;" glyph-name="slack" d="M215.133 312.913c0-59.197-48.366-107.566-107.566-107.566s-107.566 48.369-107.566 107.566c0 59.203 48.366 107.566 107.566 107.566h107.566v-107.566zM269.349 312.913c0 59.203 48.366 107.566 107.566 107.566s107.566-48.364 107.566-107.566v-269.347c0-59.203-48.366-107.566-107.566-107.566s-107.566 48.364-107.566 107.566v269.347zM376.914 744.867c-59.2 0-107.566 48.366-107.566 107.566s48.366 107.566 107.566 107.566c59.2 0 107.566-48.366 107.566-107.566v-107.566h-107.566zM376.914 690.651c59.2 0 107.566-48.366 107.566-107.566s-48.366-107.566-107.566-107.566h-269.348c-59.2 0-107.566 48.366-107.566 107.566s48.366 107.566 107.566 107.566h269.348zM808.868 583.086c0 59.2 48.369 107.566 107.566 107.566 59.203 0 107.566-48.366 107.566-107.566s-48.364-107.566-107.566-107.566h-107.566v107.566zM754.653 583.086c0-59.2-48.369-107.566-107.566-107.566-59.203 0-107.566 48.366-107.566 107.566v269.348c0 59.2 48.364 107.566 107.566 107.566 59.197 0 107.566-48.366 107.566-107.566v-269.348zM647.087 151.132c59.197 0 107.566-48.369 107.566-107.566 0-59.203-48.369-107.566-107.566-107.566-59.203 0-107.566 48.364-107.566 107.566v107.566h107.566zM647.087 205.347c-59.203 0-107.566 48.369-107.566 107.566 0 59.203 48.364 107.566 107.566 107.566h269.347c59.203 0 107.566-48.364 107.566-107.566 0-59.197-48.364-107.566-107.566-107.566h-269.347z" />
<glyph unicode="&#xe932;" glyph-name="selection" d="M1024 448c0-282.771-229.228-511.999-512.001-511.999-282.77 0-511.999 229.228-511.999 511.999s229.229 511.999 511.999 511.999c282.772 0 512.001-229.229 512.001-511.999zM452.777 176.898l379.869 379.874c12.901 12.899 12.901 33.815 0 46.714l-46.711 46.714c-12.901 12.901-33.815 12.901-46.716 0l-309.801-309.799-144.638 144.64c-12.899 12.899-33.815 12.899-46.716 0l-46.714-46.712c-12.899-12.901-12.899-33.82 0-46.716l214.709-214.709c12.901-12.901 33.815-12.901 46.716-0.005z" />
<glyph unicode="&#xe933;" glyph-name="search" d="M1016.95 22.247l-242.789 242.789c-4.603 4.598-10.597 6.999-16.997 6.999h-26.403c62.999 72.997 101.197 167.995 101.197 271.986 0 229.789-186.19 415.979-415.979 415.979s-415.979-186.191-415.979-415.979c0-229.79 186.191-415.979 415.979-415.979 103.992 0 198.989 38.198 271.986 101.197v-26.403c0-6.4 2.601-12.395 6.999-16.997l242.789-242.789c9.4-9.4 24.601-9.4 34 0l45.197 45.197c9.4 9.4 9.4 24.601 0 34zM415.979 224.037c-176.791 0-319.984 143.194-319.984 319.984s143.193 319.984 319.984 319.984c176.79 0 319.984-143.193 319.984-319.984s-143.194-319.984-319.984-319.984z" />
<glyph unicode="&#xe934;" glyph-name="scissors" d="M209.727 958.879c-90.466-11.070-162.68-77.76-181.879-164.388l-0.262-1.409c-5.247-24.004-4.825-66.946 0.845-90.105 20.988-85.341 85.521-146.376 170.26-161.032 41.615-7.237 89.803-0.422 128.223 18.094l7.599 3.678 115.436-115.377-116.281-116.341-9.168 4.644c-15.557 7.327-33.683 13.352-52.609 17.169l-1.551 0.261c-10.919 1.416-23.547 2.224-36.366 2.224-13.161 0-26.124-0.852-38.835-2.503l1.5 0.16c-43.913-8.297-81.995-29.118-111.457-58.563l0.001 0.001c-38.139-38.189-61.723-90.92-61.723-149.16 0-54.544 20.688-104.257 54.644-141.72l-0.16 0.178c65.438-72.254 175.687-89.864 259.461-41.555 51.868 29.975 85.401 74.183 100.961 133.289 4.221 16.103 5.066 23.884 5.187 48.309 0.181 38.841-2.654 51.687-21.351 97.041-2.292 5.488 0.604 8.444 283.343 291.546 230.933 231.114 286.541 287.807 290.28 295.767 2.973 6.048 4.712 13.166 4.712 20.689 0 8.092-2.011 15.712-5.562 22.391l0.125-0.259c-11.459 22.557-37.634 41.253-57.598 41.253-22.798 0-16.344 5.79-217.665-195.169l-184.494-184.192-115.075 115.134 7.237 17.912c23.401 57.779 22.435 117.367-2.714 171.044-24.651 52.925-69.234 93.086-123.852 111.33l-1.477 0.428c-20.129 6.564-43.291 10.35-67.338 10.35-7.891 0-15.686-0.408-23.367-1.202l0.961 0.080zM252.186 838.317c31.905-6.031 60.733-33.293 69.056-65.257 6.031-23.401 2.533-49.274-9.589-69.901-7.599-12.967-25.813-29.070-41.072-36.308-12.846-6.092-14.897-6.454-36.73-6.454s-23.884 0.362-36.73 6.454c-15.259 7.237-33.473 23.341-41.072 36.308-7.892 13.187-12.56 29.091-12.56 46.085 0 26.523 11.369 50.392 29.499 66.998l0.068 0.062c15.772 14.861 37.086 23.993 60.533 23.993 6.588 0 13.007-0.721 19.184-2.088l-0.586 0.109zM651.991 385.98c-11.881-2.111-22.617-8.383-34.257-20.024-21.592-21.471-26.899-44.39-15.259-65.558 4.041-7.419 46.741-51.265 154.699-159.041 161.996-161.635 158.197-158.318 180.331-158.318 14.656 0 27.985 6.574 42.339 20.868 14.294 14.354 20.627 27.321 20.627 42.158-0.061 22.677 2.714 19.602-158.137 180.331-91.13 91.070-150.597 149.030-156.328 152.287-7.968 4.803-17.589 7.644-27.874 7.644-2.165 0-4.299-0.126-6.397-0.371l0.255 0.025zM252.186 235.201c31.905-6.031 60.733-33.293 69.056-65.257 6.031-23.401 2.533-49.274-9.589-69.901-7.599-12.967-25.813-29.070-41.072-36.308-12.846-6.092-14.897-6.454-36.73-6.454s-23.884 0.362-36.73 6.454c-15.259 7.237-33.473 23.341-41.072 36.308-7.892 13.187-12.56 29.091-12.56 46.085 0 26.523 11.369 50.392 29.499 66.998l0.068 0.062c15.772 14.861 37.086 23.993 60.533 23.993 6.588 0 13.007-0.721 19.184-2.088l-0.586 0.109z" />
<glyph unicode="&#xe935;" glyph-name="redo" d="M981.707 917.707l-107.695-107.695c-92.643 92.661-220.623 149.987-362.012 149.987-282.136 0-512.205-230.245-511.999-512.38 0.206-282.597 229.357-511.618 511.999-511.618 131.976 0 252.286 49.934 343.075 131.939 10.56 9.534 11.051 25.934 0.999 35.992l-40.753 40.748c-9.286 9.286-24.264 9.878-34.062 1.142-71.502-63.749-165.816-102.463-269.258-102.463-223.63 0-404.644 180.974-404.644 404.641 0 223.63 180.979 404.644 404.644 404.644 111.818 0 212.971-45.26 286.17-118.474l-111.749-111.75c-15.607-15.608-4.55-42.292 17.52-42.292h295.281c13.684 0 24.777 11.093 24.777 24.774v295.285c0 22.072-26.685 33.125-42.292 17.519z" />
<glyph unicode="&#xe936;" glyph-name="rectangle" d="M36.747 957.965c-17.499-5.432-30.815-19.426-35.191-36.96l-0.075-0.356c-1.281-6.356-1.692-146.396-1.384-477.992l0.462-469.022 3.639-7.945c4.715-10.15 15.839-21.273 25.988-25.988l7.945-3.639h948.295l8.407 4.101c10.713 5.28 19.786 14.353 25.066 25.066l4.101 8.407v948.295l-4.101 8.407c-5.681 11.062-14.466 19.847-25.202 25.375l-0.324 0.152-7.945 3.639-470.713 0.358c-380.856 0.256-472.302-0.102-478.966-1.896zM922.352 447.782v-410.073h-820.147v820.147h820.147v-410.073z" />
<glyph unicode="&#xe937;" glyph-name="qrcode" d="M0 521.143h438.857v438.857h-438.857v-438.857zM91.429 868.571h256v-256h-256v256zM585.143 960v-438.857h438.857v438.857h-438.857zM932.572 612.571h-256v256h256v-256zM0-64h438.857v438.857h-438.857v-438.857zM91.429 283.429h256v-256h-256v256zM164.572 210.286h109.714v-109.714h-109.714v109.714zM164.572 795.429h109.714v-109.714h-109.714v109.714zM859.429 685.714h-109.714v109.714h109.714v-109.714zM950.857 374.857h73.143v-292.57h-292.57v73.143h-73.143v-219.429h-73.143v438.857h219.429v-73.143h146.286v73.143zM950.857 9.143h73.143v-73.143h-73.143v73.143zM804.572 9.143h73.143v-73.143h-73.143v73.143z" />
<glyph unicode="&#xe938;" glyph-name="prev-step" d="M22.951 398.797l384.019-320.018c41.202-34.398 105.005-5.596 105.005 49.206v640.031c0 54.803-63.803 83.604-105.005 49.202l-384.019-320.016c-30.602-25.601-30.602-72.804 0-98.405zM534.975 398.797l384.019-320.018c41.203-34.398 105.006-5.596 105.006 49.206v640.031c0 54.803-63.803 83.604-105.006 49.202l-384.019-320.016c-30.599-25.601-30.599-72.804 0-98.405z" />
<glyph unicode="&#xe939;" glyph-name="play" d="M178.715 63.153v769.692l666.57-384.845-666.57-384.848zM908.769 338.046c84.642 48.867 84.642 171.040 0 219.91l-666.57 384.844c-84.644 48.869-190.449-12.217-190.449-109.955v-769.692c0-97.739 105.805-158.822 190.449-109.953l666.57 384.846z" />
<glyph unicode="&#xe93a;" glyph-name="play-circle" d="M750.863 485.162l-363.352 220.904c-32.62 18.168-73.704-5.162-73.704-43.354v-429.42c0-37.983 40.878-61.524 73.704-43.353l363.352 208.515c33.862 18.79 33.862 67.716 0 86.71zM1024 448c0 282.838-229.16 512-512 512-282.838 0-512-229.162-512-512 0-282.84 229.162-512 512-512 282.84 0 512 229.16 512 512zM99.097 448c0 228.13 184.774 412.904 412.904 412.904s412.904-184.774 412.904-412.904c0-228.13-184.774-412.904-412.904-412.904s-412.904 184.774-412.904 412.904z" />
<glyph unicode="&#xe93b;" glyph-name="pencil" d="M986.519 847.479l-75.023 75.020c-24.996 25-57.759 37.5-90.516 37.5-32.763 0-65.521-12.5-90.501-37.48l-704.779-704.759-25.4-228.438c-3.2-28.759 19.46-53.32 47.6-53.32 1.78 0 3.58 0.102 5.38 0.302l228.279 25.216 704.939 704.94c49.997 50 49.997 131.040 0.020 181.019zM237.5 53.223l-135.16-14.925 15.060 135.383 524.518 524.517 120.279-120.28-524.697-524.696zM918.618 734.359l-88.561-88.56-120.259 120.28 88.561 88.56c8.156 8.16 17.679 9.38 22.62 9.38s14.479-1.22 22.62-9.38l75.018-75.020c12.477-12.5 12.477-32.8 0-45.26z" />
<glyph unicode="&#xe93c;" glyph-name="pen" d="M986.503 847.473l-75.022 75.019c-24.98 25-57.737 37.499-90.494 37.499-32.762 0-65.52-12.5-90.52-37.479l-135.739-135.758-79.18 79.179c-31.237 31.239-81.897 31.239-113.116 0l-237.576-237.556c-12.5-12.5-12.5-32.759 0-45.239l22.62-22.62c12.5-12.5 32.759-12.5 45.239 0l226.276 226.236 67.877-67.879-338.952-338.934c-104.995-104.999-171.14-242.597-187.557-390.173l-0.060-0.461c-3.18-28.739 19.48-53.298 47.619-53.298 1.78 0 3.56 0.102 5.38 0.302 147.758 16.323 285.548 82.487 390.673 187.594l542.532 542.552c49.996 49.999 49.996 131.038 0 181.017zM376.072 191.784c-74.039-74.039-167.977-125.755-269.476-149.2 23.44 101.482 75.179 195.458 149.198 269.477l338.933 338.935 120.277-120.278-338.932-338.934zM918.623 734.355l-135.76-135.758-120.257 120.278 135.739 135.738c8.156 8.16 17.679 9.38 22.62 9.38s14.479-1.22 22.62-9.38l75.017-75.019c8.161-8.16 9.38-17.68 9.38-22.62s-1.198-14.48-9.359-22.62z" />
<glyph unicode="&#xe93d;" glyph-name="pause" d="M341.332 846.222v-796.444h-170.667v796.444h170.667zM170.666 960c-62.838 0-113.778-50.94-113.778-113.778v-796.444c0-62.84 50.94-113.778 113.778-113.778h170.667c62.838 0 113.778 50.938 113.778 113.778v796.444c0 62.838-50.94 113.778-113.778 113.778h-170.667zM853.332 846.222v-796.444h-170.667v796.444h170.667zM682.666 960c-62.84 0-113.778-50.94-113.778-113.778v-796.444c0-62.84 50.938-113.778 113.778-113.778h170.667c62.84 0 113.778 50.938 113.778 113.778v796.444c0 62.838-50.938 113.778-113.778 113.778h-170.667z" />
<glyph unicode="&#xe93e;" glyph-name="pause-fill" d="M329.142-64.001h-219.428c-60.572 0-109.714 49.142-109.714 109.716v804.57c0 60.572 49.143 109.714 109.714 109.714h219.428c60.572 0 109.714-49.143 109.714-109.714v-804.57c0-60.575-49.143-109.716-109.714-109.716zM1024 45.716v804.57c0 60.572-49.142 109.714-109.716 109.714h-219.428c-60.57 0-109.711-49.143-109.711-109.714v-804.57c0-60.575 49.142-109.716 109.711-109.716h219.428c60.575 0 109.716 49.142 109.716 109.716z" />
<glyph unicode="&#xe93f;" glyph-name="pause-circle" d="M512 960c-282.839 0-512-229.161-512-512 0-282.841 229.161-512 512-512 282.841 0 512 229.159 512 512 0 282.839-229.159 512-512 512zM512 35.097c-228.129 0-412.903 184.774-412.903 412.903s184.774 412.903 412.903 412.903c228.129 0 412.903-184.774 412.903-412.903s-184.774-412.903-412.903-412.903zM710.194 613.161v-330.323c0-18.171-14.868-33.032-33.032-33.032h-99.097c-18.165 0-33.032 14.861-33.032 33.032v330.323c0 18.168 14.868 33.032 33.032 33.032h99.097c18.165 0 33.032-14.865 33.032-33.032zM478.968 613.161v-330.323c0-18.171-14.865-33.032-33.032-33.032h-99.097c-18.168 0-33.032 14.861-33.032 33.032v330.323c0 18.168 14.865 33.032 33.032 33.032h99.097c18.168 0 33.032-14.865 33.032-33.032z" />
<glyph unicode="&#xe940;" glyph-name="next-step" d="M1001.051 497.247l-384.019 320.016c-41.203 34.202-105.006 5.6-105.006-49.202v-640.035c0-54.802 63.803-83.603 105.006-49.201l384.019 320.016c30.598 25.601 30.598 72.804 0 98.405zM489.024 497.247l-384.019 320.016c-41.202 34.202-105.005 5.6-105.005-49.202v-640.035c0-54.802 63.803-83.603 105.005-49.201l384.019 320.016c30.6 25.601 30.6 72.804 0 98.405z" />
<glyph unicode="&#xe941;" glyph-name="more-vertical" d="M486.367 957.399c-33.265-6.279-68.866-34.533-84.363-66.795-7.804-15.469-12.373-33.716-12.373-53.031 0-33.71 13.92-64.169 36.324-85.943l0.029-0.027c21.753-22.533 52.226-36.524 85.965-36.524s64.212 13.992 85.933 36.488l0.034 0.035c22.495 21.758 36.46 52.214 36.46 85.933s-13.964 64.174-36.427 85.9l-0.033 0.031c-21.984 22.549-52.657 36.534-86.598 36.534-8.836 0-17.45-0.948-25.748-2.747l0.797 0.145zM519.566 845.183c6.746-6.746 1.871-18.769-7.615-18.769-5.344 0-11.154 5.811-11.154 11.088 0 5.344 5.811 11.154 11.154 11.154 2.271 0 5.678-1.603 7.615-3.473zM486.367 567.714c-33.265-6.279-68.866-34.466-84.363-66.729-7.808-15.478-12.381-33.736-12.381-53.062 0-33.723 13.923-64.194 36.332-85.978l0.029-0.027c21.545-22.391 51.768-36.299 85.237-36.299 6.625 0 13.123 0.545 19.45 1.593l-0.688-0.094c52.991 8.443 94.289 49.739 102.639 102.030l0.093 0.702c0.954 5.64 1.499 12.138 1.499 18.763 0 33.471-13.908 63.692-36.261 85.201l-0.038 0.037c-21.979 22.516-52.63 36.479-86.544 36.479-8.856 0-17.488-0.952-25.802-2.759l0.798 0.145zM519.566 455.498c1.944-1.995 3.238-4.63 3.535-7.561l0.004-0.053c-0.301-2.985-1.596-5.62-3.543-7.618l0.003 0.003c-1.995-1.944-4.63-3.238-7.561-3.535l-0.053-0.004c-2.985 0.301-5.62 1.596-7.618 3.543l0.003-0.003c-1.944 1.995-3.238 4.63-3.535 7.561l-0.004 0.053c0.301 2.985 1.596 5.62 3.543 7.618l-0.003-0.003c1.995 1.944 4.63 3.238 7.561 3.535l0.053 0.004c2.985-0.301 5.62-1.596 7.618-3.543l-0.003 0.003zM486.367 178.095c-33.265-6.279-68.866-34.466-84.363-66.729-7.808-15.478-12.381-33.736-12.381-53.062 0-33.723 13.923-64.194 36.332-85.978l0.029-0.027c21.545-22.391 51.768-36.299 85.237-36.299 6.625 0 13.123 0.545 19.45 1.593l-0.688-0.094c53.011 8.402 94.329 49.72 102.639 102.033l0.091 0.699c0.954 5.637 1.499 12.131 1.499 18.752 0 33.453-13.91 63.657-36.26 85.143l-0.039 0.037c-21.964 22.555-52.625 36.547-86.554 36.547-8.852 0-17.482-0.952-25.792-2.761l0.797 0.145zM519.566 65.88c1.944-1.995 3.238-4.63 3.535-7.561l0.004-0.053c-0.303-3.006-1.596-5.663-3.545-7.685l0.004 0.004c-2.014-1.898-4.643-3.165-7.559-3.469l-0.056-0.005c-2.972 0.309-5.601 1.575-7.621 3.479l0.007-0.007c-1.944 2.018-3.238 4.676-3.535 7.627l-0.004 0.055c0.301 2.985 1.596 5.62 3.543 7.618l-0.003-0.003c1.999 1.924 4.637 3.196 7.564 3.47l0.050 0.004c2.271 0 5.678-1.537 7.615-3.473z" />
<glyph unicode="&#xe942;" glyph-name="mobile" d="M736 960h-448c-53 0-96-43-96-96v-832c0-53.002 43-96 96-96h448c53.002 0 96 42.998 96 96v832c0 53-42.998 96-96 96zM723.999 32h-423.998c-6.6 0-12 5.402-12 12.001v807.998c0 6.6 5.4 12 12 12h423.998c6.6 0 12.001-5.4 12.001-12v-807.998c0-6.6-5.402-12.001-12.001-12.001zM584 96h-144c-13.2 0-24 10.798-24 24.003v15.995c0 13.204 10.8 24.003 24 24.003h144c13.2 0 24-10.798 24-24.003v-15.995c0-13.204-10.8-24.003-24-24.003z" />
<glyph unicode="&#xe943;" glyph-name="microphone" d="M832 576h-32c-17.679 0-32-14.32-32-32v-96c0-149.601-128.98-269.64-281.58-254.761-133 12.979-230.42 132.541-230.42 266.161v84.6c0 17.68-14.32 32-32 32h-32c-17.68 0-32-14.32-32-32v-80.32c0-179.279 127.94-339.1 304-363.379v-68.301h-112c-17.68 0-32-14.321-32-32v-32c0-17.679 14.32-32 32-32h320c17.679 0 32 14.321 32 32v32c0 17.679-14.321 32-32 32h-112v67.538c171.418 23.521 304 170.66 304 348.462v96c0 17.68-14.321 32-32 32zM512 256c106.040 0 192 85.96 192 192h-170.66c-11.78 0-21.34 7.16-21.34 16v32c0 8.84 9.56 16 21.34 16h170.66v64h-170.66c-11.78 0-21.34 7.16-21.34 16v32c0 8.84 9.56 16 21.34 16h170.66v64h-170.66c-11.78 0-21.34 7.16-21.34 16v32c0 8.84 9.56 16 21.34 16h170.66c0 106.040-85.96 192-192 192s-192-85.96-192-192v-320c0-106.040 85.96-192 192-192z" />
<glyph unicode="&#xe944;" glyph-name="microphone-mute" d="M1006.698 129.438l-248.37 191.95c19.673 38.024 31.119 80.949 31.119 126.625v75.665c0 13.932-11.289 25.222-25.222 25.222h-25.222c-13.932 0-25.222-11.289-25.222-25.222v-75.665c0-28.248-6.245-54.852-16.901-79.133l-41.853 32.342c4.888 14.82 8.326 30.301 8.326 46.769h-68.843l-65.264 50.441h134.086v50.441h-134.515c-9.284 0-16.818 5.645-16.818 12.611v25.222c0 6.966 7.531 12.611 16.818 12.611h134.515v50.443h-134.515c-9.284 0-16.818 5.645-16.818 12.611v25.222c0 6.966 7.531 12.611 16.818 12.611h134.515c0 83.58-67.75 151.33-151.33 151.33s-151.33-67.75-151.33-151.33v-71.498l-281.426 217.532c-11.002 8.54-26.859 6.57-35.406-4.429l-30.962-39.835c-8.54-10.987-6.57-26.831 4.429-35.391l927.462-716.81c10.999-8.56 26.843-6.57 35.406 4.429l30.962 39.835c8.527 10.989 6.558 26.833-4.447 35.394zM638.116 120.138h-88.276v53.251c18.46 2.557 36.415 6.749 53.533 12.745l-79.451 61.41c-10.578-0.625-21.138-1.367-32.079-0.313-88.036 8.588-155.653 76.659-175.255 160.551l-82.018 63.402v-10.797c0-141.302 100.839-267.269 239.606-286.407v-53.831h-88.276c-13.932 0-25.222-11.289-25.222-25.222v-25.222c0-13.932 11.289-25.222 25.222-25.222h252.217c13.932 0 25.222 11.289 25.222 25.222v25.222c0 13.932-11.289 25.222-25.222 25.222z" />
<glyph unicode="&#xe945;" glyph-name="logout2" d="M126.996 956.812c-19.205-3.838-36.278-10.283-51.869-19.051l0.877 0.454c-21.457-15.399-39.681-33.621-54.601-54.379l-0.479-0.701c-8.678-15.249-15.195-32.989-18.552-51.822l-0.148-1.008c-2.964-18.496-2.964-745.87 0-764.365 5.416-33.415 17.679-56.613 43.839-82.772 20.131-20.131 34.13-29.328 55.59-36.889 25.036-8.686 35.97-9.299 157.982-8.686l115.473 0.613 9.81 4.803c12.364 6.131 19.212 16.146 22.277 32.701 4.803 25.751-4.087 48.845-22.277 57.839l-9.81 4.803-118.538 1.021c-116.596 1.021-118.64 1.124-126.713 5.416-10.422 5.567-18.534 14.304-23.17 24.91l-0.129 0.331c-4.19 9.095-4.19 11.343-4.19 378.095s0 369.001 4.19 378.095c4.765 10.936 12.877 19.674 23.023 25.106l0.275 0.134c8.072 4.292 10.117 4.394 126.713 5.416l118.538 1.021 9.81 4.803c18.189 8.992 27.079 32.087 22.277 57.839-3.066 16.554-9.912 26.569-22.277 32.701l-9.81 4.803-118.538 0.307c-10.234 0.147-22.312 0.23-34.411 0.23-33.467 0-66.785-0.639-99.942-1.909l4.778 0.145zM698.023 752.947c-13.448-7.686-24.299-18.536-31.768-31.572l-0.218-0.412c-2.217-5.106-3.505-11.053-3.505-17.302 0-6.695 1.48-13.043 4.13-18.738l-0.115 0.274c3.066-6.846 26.466-31.576 92.276-97.487l88.189-88.392-506.648-1.124-9.81-4.803c-12.671-6.233-19.415-16.453-22.481-33.824-4.394-25.956 4.19-47.722 22.481-56.714l9.81-4.803 506.648-1.124-88.189-88.392c-93.604-93.809-96.466-97.283-96.466-115.881 0-12.467 5.518-23.605 17.474-35.561 17.474-17.576 35.357-21.868 53.853-13.182 6.949 3.27 42.408 37.299 138.362 132.334 43.592 43.464 87.869 87.191 132.354 130.706l3.557 3.467c9.083 10.032 14.987 23.094 16.031 37.504l0.012 0.204c-1.056 14.613-6.96 27.676-16.091 37.761l0.048-0.054c-3.781 3.372-64.992 63.867-136.013 134.377-97.794 97.079-131.209 129.063-138.158 132.231-5.414 2.56-11.761 4.055-18.457 4.055-6.255 0-12.204-1.304-17.591-3.654l0.284 0.11z" />
<glyph unicode="&#xe946;" glyph-name="logout" d="M544.082 735.991v-103.215h-192.031c-53.008 0-96.015-43.006-96.015-96.014v-177.227c0-53.006 43.006-96.014 96.015-96.014h192.031v-103.215c0-85.212 103.414-128.42 163.819-67.81l288.047 287.84c37.402 37.406 37.402 98.215 0 135.82l-288.047 288.042c-60.206 59.809-163.819 17.202-163.819-68.211zM928.139 447.948l-288.047-288.041v199.428h-288.041v177.226h288.041v199.429l288.047-288.042zM192.028 832.005h168.025c13.202 0 24.003-10.802 24.003-24.003v-48.007c0-13.202-10.802-24.003-24.003-24.003h-168.025c-53.008 0-96.015-43.006-96.015-96.014v-384.059c0-53.007 43.006-96.011 96.015-96.011h168.025c13.202 0 24.003-10.803 24.003-24.008v-48.005c0-13.199-10.802-24.002-24.003-24.002h-168.025c-106.016 0-192.028 86.011-192.028 192.026v384.059c0 106.015 86.013 192.028 192.028 192.028z" />
<glyph unicode="&#xe947;" glyph-name="login" d="M288 735.947v-103.2h-192c-53 0-96-43-96-96v-177.2c0-52.998 43-96.002 96-96.002h192v-103.198c0-85.201 103.4-128.399 163.8-67.799l287.999 287.799c37.401 37.4 37.401 98.2 0 135.8l-287.999 288c-60.2 59.8-163.8 17.2-163.8-68.2zM671.999 447.947l-288-287.999v199.4h-288v177.2h288v199.4l288-288zM832 63.948h-167.997c-13.205 0-24.003 10.798-24.003 23.997v48c0 13.205 10.798 24.003 24.003 24.003h167.997c53.002 0 96 42.998 96 96v384c0 53-42.998 96-96 96h-167.997c-13.205 0-24.003 10.8-24.003 24v48c0 13.2 10.798 24 24.003 24h167.997c106 0 192-86 192-192v-384c0-106-86.001-192-192-192z" />
<glyph unicode="&#xe948;" glyph-name="lock" d="M485.547 915.499c-99.072-9.771-183.936-77.995-216.363-173.952-11.051-32.64-13.099-54.4-13.141-140.16l-0.043-67.669-32.853-0.811c-28.288-0.725-34.731-1.408-46.549-4.949-41.664-13.255-73.73-45.673-86.242-86.625l-0.243-0.927-3.925-13.739v-341.333l3.925-13.739c12.998-42.417 45.733-75.152 87.218-87.903l0.931-0.246 13.739-3.925h640l13.739 3.925c42.417 12.998 75.152 45.733 87.903 87.218l0.246 0.931 3.925 13.739v341.333l-3.925 13.739c-12.756 41.879-44.822 74.297-85.559 87.297l-0.926 0.255c-11.819 3.541-18.261 4.224-46.549 4.949l-32.853 0.811-0.043 67.669c-0.043 37.205-0.768 75.008-1.621 84.011-5.483 60.887-32.028 114.71-72.195 154.925l0.003-0.003c-54.869 55.979-129.792 82.987-208.597 75.179zM544.299 828.629c71.040-14.507 123.392-68.224 135.808-139.307 2.005-11.563 2.56-30.123 2.56-85.376v-70.613h-341.333v71.851c0 80.725 1.067 90.965 12.629 119.637 30.592 75.819 111.36 119.893 190.336 103.808zM824.747 445.568c9.429-3.371 17.664-10.283 22.997-19.371l4.736-8.064v-324.267l-4.736-8.064c-5.205-8.884-13.166-15.672-22.692-19.27l-0.305-0.101c-9.515-3.371-615.979-3.371-625.493 0-9.832 3.699-17.793 10.487-22.884 19.162l-0.113 0.208-4.736 8.064v324.267l4.736 8.064c5.333 9.088 13.568 16 22.997 19.371 9.515 3.371 615.979 3.371 625.493 0z" />
<glyph unicode="&#xe949;" glyph-name="link" d="M685.227 911.445c-30.080-5.077-45.227-9.728-70.699-21.675-32.043-14.976-46.976-26.453-95.701-73.557-48.256-46.635-55.381-54.571-58.24-65.152-2.304-8.533-1.067-24.32 2.432-31.019 3.925-7.424 13.141-16.171 20.821-19.669 9.771-4.48 27.051-4.267 35.883 0.384 3.712 2.005 25.6 22.187 48.597 44.928s47.019 45.227 53.376 50.005c15.768 11.399 34.046 20.644 53.698 26.775l1.342 0.361c14.293 4.395 17.365 4.693 46.037 4.693 28.544 0 31.787-0.341 46.080-4.651 51.968-15.744 92.245-51.84 111.957-100.224 22.485-55.211 14.123-119.765-21.547-166.272-5.035-6.571-42.027-44.672-82.219-84.651-77.269-76.885-84.651-83.157-111.403-94.763-24.533-10.624-36.949-13.099-66.603-13.269-29.227-0.171-41.003 1.835-64.427 11.051-27.287 11.090-50.207 28.023-68.047 49.351l-0.22 0.27c-13.312 15.915-21.589 21.376-34.603 22.912-1.682 0.24-3.625 0.376-5.6 0.376-15.537 0-29.098-8.466-36.319-21.037l-0.108-0.204c-6.4-10.965-6.827-28.416-0.939-39.68 10.197-19.328 45.44-53.376 72.405-69.888 33.92-20.736 64.64-31.787 102.741-36.949 76.16-10.368 149.077 13.013 208.256 66.773 30.549 27.733 145.152 144.469 154.795 157.653 34.645 47.36 50.944 96.597 50.944 153.856 0 25.515-1.707 40.32-7.083 62.037-24.336 95.032-99.418 167.78-193.976 188.363l-1.693 0.309c-21.376 4.608-69.717 5.973-89.941 2.56zM390.827 616.021c-52.139-7.296-97.621-29.099-138.624-66.347-31.019-28.203-145.493-144.768-155.136-157.995-23.552-32.299-37.248-62.037-45.952-99.84-5.163-22.4-6.528-70.912-2.603-93.995 14.421-85.163 64-151.808 141.781-190.635 55.979-27.947 128.213-32.853 190.293-12.885 17.877 5.76 45.355 19.371 63.872 31.616 13.909 9.216 26.197 20.309 64.725 58.411 26.368 26.155 49.109 50.091 51.157 53.888 5.077 9.557 5.035 28.032-0.043 37.547-4.849 8.912-12.194 15.941-21.094 20.271l-0.282 0.124c-8.149 3.413-25.216 3.413-33.365 0-4.053-1.707-21.589-17.749-49.024-44.928-23.467-23.253-47.872-46.165-54.229-50.944-15.768-11.399-34.046-20.644-53.698-26.775l-1.342-0.361c-14.293-4.395-17.365-4.693-46.037-4.693-28.544 0-31.787 0.341-46.080 4.651-51.968 15.744-92.245 51.84-111.957 100.224-7.884 18.979-12.463 41.024-12.463 64.138 0 38.102 12.442 73.298 33.486 101.746l-0.329-0.465c4.565 6.101 41.557 44.203 82.176 84.651 78.208 77.781 85.504 83.968 112.299 95.616 24.533 10.624 36.949 13.099 66.603 13.269 29.227 0.171 41.003-1.835 64.427-11.051 27.287-11.090 50.207-28.023 68.047-49.351l0.22-0.27c13.355-15.957 21.589-21.376 34.816-22.955 1.471-0.182 3.175-0.286 4.902-0.286 23.281 0 42.155 18.873 42.155 42.155 0 7.122-1.766 13.832-4.885 19.715l0.111-0.229c-9.6 18.475-45.44 52.907-71.936 69.12-53.333 32.597-112.341 45.269-171.989 36.864z" />
<glyph unicode="&#xe94a;" glyph-name="line" d="M938.963 933.788c-5.442-2.598-15.461-9.895-22.203-16.142-38.097-35.252-898.373-855.019-902.826-860.337-21.089-24.986-18.121-53.62 8.102-79.41 21.399-21.089 41.437-25.913 63.825-15.214 9.957 4.762 64.876 56.403 448.32 421.356 240.333 228.706 446.774 425.561 458.834 437.497 25.542 25.357 30.985 34.448 30.985 52.26 0 15.338-6.494 28.696-21.089 43.539-20.904 21.151-42.674 26.779-63.949 16.451z" />
<glyph unicode="&#xe94b;" glyph-name="group" d="M385.506 863.624v-289.129h-289.129v289.129h289.129zM0 960v-481.882h481.882v481.882h-481.882zM927.624 863.624v-289.129h-289.129v289.129h289.129zM542.118 960v-481.882h481.882v481.882h-481.882zM385.506 321.506v-289.129h-289.129v289.129h289.129zM0 417.882v-481.882h481.882v481.882h-481.882zM927.624 321.506v-289.129h-289.129v289.129h289.129zM542.118 417.882v-481.882h481.882v481.882h-481.882z" />
<glyph unicode="&#xe94c;" glyph-name="full" d="M0.001 621.714v283.427c0 30.4 24.457 54.857 54.857 54.857h283.427c15.086 0 27.429-12.343 27.429-27.429v-54.857c0-15.086-12.343-27.429-27.429-27.429h-228.571v-228.571c0-15.086-12.343-27.429-27.429-27.429h-54.857c-15.086 0-27.429 12.343-27.429 27.429zM658.284 932.57v-54.857c0-15.086 12.344-27.429 27.433-27.429h228.567v-228.571c0-15.086 12.344-27.429 27.433-27.429h54.856c15.084 0 27.428 12.343 27.428 27.429v283.427c0 30.4-24.458 54.857-54.856 54.857h-283.427c-15.089 0-27.433-12.343-27.433-27.429zM996.571 301.716h-54.856c-15.089 0-27.433-12.344-27.433-27.433v-228.567h-228.567c-15.089 0-27.433-12.344-27.433-27.433v-54.856c0-15.084 12.344-27.428 27.433-27.428h283.427c30.397 0 54.856 24.458 54.856 54.856v283.427c0 15.089-12.344 27.433-27.428 27.433zM365.714-36.571v54.856c0 15.089-12.343 27.433-27.429 27.433h-228.571v228.567c0 15.089-12.343 27.433-27.429 27.433h-54.857c-15.086 0-27.429-12.344-27.429-27.433v-283.427c0-30.397 24.457-54.856 54.857-54.856h283.427c15.086 0 27.429 12.344 27.429 27.428z" />
<glyph unicode="&#xe94d;" glyph-name="eye" d="M476.943 830.939c-148.436-12.141-289.859-102.263-406.573-259.078-21.694-28.576-42.652-60.865-61.21-94.658l-2.062-4.099c-6.241-12.141-7.097-15.391-7.097-25.053s0.855-12.911 7.097-25.053c39.246-76.697 117.911-174.429 188.109-233.598 106.196-89.523 226.757-133.215 343.727-124.665 63.534 4.012 122.25 21.038 174.697 48.428l-2.406-1.144c60.195 29.584 106.881 63.872 161.603 118.765 56.604 56.689 113.72 132.874 143.818 191.786 6.498 12.569 7.354 15.732 7.354 25.48s-0.855 12.911-7.354 25.48c-20.644 37.767-41.513 69.912-64.494 100.375l1.478-2.045c-95.508 128.428-207.177 211.965-326.969 244.885-34.523 9.888-74.174 15.574-115.153 15.574-12.165 0-24.214-0.501-36.126-1.484l1.561 0.103zM566.722 743.125c108.59-18.298 209.656-85.077 300.975-198.969 24.027-30.012 64.983-90.549 64.983-96.107 0-5.387-40.101-64.898-63.444-94.14-81.486-102.263-172.291-167.931-267.201-193.154-34.116-9.063-49.763-10.945-90.036-10.945s-55.92 1.881-90.036 10.945c-112.438 29.841-218.72 116.115-308.585 250.613-5.41 7.702-11.847 17.604-17.994 27.701l-1.501 2.653c-3.335 6.328-3.335 6.328 0 12.654 1.881 3.506 10.602 17.186 19.495 30.354 80.63 120.646 175.455 203.329 275.751 240.438 27.225 9.887 58.984 17.353 91.887 21.031l1.912 0.173c9.491 1.624 68.404-0.684 83.795-3.249zM489.085 617.264c-69.599-10.119-125.097-60.734-142.272-126.805l-0.264-1.194c-3.676-14.023-4.361-20.008-4.361-41.213s0.684-27.19 4.361-41.213c16.588-62.418 61.82-107.65 124.237-124.237 14.023-3.676 20.008-4.361 41.213-4.361s27.19 0.684 41.213 4.361c31.551 8.38 56.689 22.744 79.091 45.146s36.766 47.54 45.146 79.091c3.676 14.023 4.361 20.008 4.361 41.213s-0.684 27.19-4.361 41.213c-15.652 61.234-62.972 108.497-123.059 123.811l-1.179 0.255c-13.163 3.175-28.277 4.996-43.815 4.996-7.155 0-14.22-0.386-21.175-1.139l0.862 0.076zM533.291 530.904c15.134-3.933 28.729-11.971 39.931-23.684 15.135-15.146 24.496-36.064 24.496-59.169s-9.361-44.023-24.496-59.169l0.001 0.001c-15.354-16.313-37.087-26.471-61.192-26.471-23.099 0-44.020 9.328-59.201 24.423l0.004-0.004c-16.285 15.378-26.423 37.115-26.423 61.221s10.137 45.844 26.382 61.183l0.041 0.038c15.208 15.052 36.136 24.351 59.234 24.351 7.544 0 14.856-0.992 21.814-2.852l-0.588 0.134z" />
</font>
</defs>
</svg>
